Abdulloh ®

Jins:
Ko‘rsatilmagan
Staj:
11 oy 21 kun
Xabarlar:
41
Taqiq:

La La Lend / Ла-Ла Ленд / La La Land
Chiqqan yili: 2016
Davlat: Amerika Qo'shma Shtatlari, Gongkong
Janr:
musiqiy, drama, melodrama, komediya, musiqa
Davomiyligi: 02:07:48
-Tarjima: Professional (Ko'p ovozli kadr ortidan)
Tarjima haqida qo'shimcha ma'lumot: MY5 (Favvora studiyasi) da tarjima qilingan.
Subtitrlar: Rus va Ingliz tillarida
Original ovoz yo'lagi: Inglizcha
-Rejissiyor: Damien Chazelle

Rollarda: Rayan Gosling (Sebastian), Emma Stoun (Mia), Dzhon Ledzhend (Keith), Dzh.K. Simmons (Bill), Rozmari DeUitt (Laura), Finn Uittrok (Greg), Kalli Ernandes (Tracy), Sonoya Midzuno (Caitlin), Dzhessika Rot (Alexis), Tom Everett Skott (David), Dzhoshua Pens (Josh), Emii Konn (Famous Actress)-
Tavsif: Bu tanlovlar orasida qahva taniqli kino yulduzlariga, fanatik jazz musiqachiga, oddiy barlarda ishlashga majbur bo'lgan, yulduzlar sevgisining hikoyasidir. Lekin sevuvchilarga erishgan yutuq ularning munosabatlarini susaytira boshlaydi.-Videoning sifati: BDRip 1080p HEVC 10bit
Format: MKV
-Video: V_MPEGH/ISO/HEVC; 1920x752 (2.553), 2782 kbps, 23,976 fps, 0,080 bpp
Audio: Audio #1: Dolby AC3 48000Hz 6ch 384kbps [rus]
Audio #2: AAC 48000Hz 8ch [eng]
Audio #3: MP3 48000Hz stereo 320kbps [uzb]

MediaInfo

General
Unique ID : 215748635766453064897510466683302404927 (0xA24FAD01C656B3A1AE343A24724D633F)
Complete name : D:\Internet\Kino UZ tracker\Ла-Ла Ленд - 2016 (BDRip 1080p HEVC 10bit) (1).mkv
Format : Matroska
Format version : Version 4 / Version 2
File size : 3.46 GiB
Duration : 2 h 7 min
Overall bit rate : 3 873 kb/s
Movie name : Ла-Ла Ленд - 2016 | ALLTOR.ME
Encoded date : UTC 2018-01-31 18:18:37
Writing application : mkvmerge v7.5.0 ('Glass Culture') 64bit built on Jan 4 2015 16:48:44
Writing library : libebml v1.3.1 + libmatroska v1.4.2
Cover : Yes
Attachments : cover.jpg
Video
ID : 1
Format : HEVC
Format/Info : High Efficiency Video Coding
Format profile : Main 10@L4@Main
Codec ID : V_MPEGH/ISO/HEVC
Duration : 2 h 7 min
Bit rate : 2 782 kb/s
Width : 1 920 pixels
Height : 752 pixels
Display aspect ratio : 2.553
Frame rate mode : Constant
Frame rate : 23.976 (24000/1001) FPS
Color space : YUV
Chroma subsampling : 4:2:0
Bit depth : 10 bits
Bits/(Pixel*Frame) : 0.080
Stream size : 2.48 GiB (72%)
Writing library : x265 2.3+22-db5e22b856f5:[Windows][GCC 6.3.0][64 bit] 10bit
Encoding settings : cpuid=1173503 / frame-threads=3 / numa-pools=8 / wpp / no-pmode / no-pme / no-psnr / no-ssim / log-level=2 / input-csp=1 / input-res=1920x752 / interlace=0 / total-frames=183851 / level-idc=0 / high-tier=1 / uhd-bd=0 / ref=4 / no-allow-non-conformance / no-repeat-headers / annexb / no-aud / no-hrd / info / hash=0 / no-temporal-layers / open-gop / min-keyint=23 / keyint=250 / bframes=4 / b-adapt=2 / b-pyramid / bframe-bias=0 / rc-lookahead=25 / lookahead-slices=4 / scenecut=40 / no-intra-refresh / ctu=64 / min-cu-size=8 / rect / no-amp / max-tu-size=32 / tu-inter-depth=1 / tu-intra-depth=1 / limit-tu=0 / rdoq-level=2 / dynamic-rd=0.00 / signhide / no-tskip / nr-intra=0 / nr-inter=0 / no-constrained-intra / strong-intra-smoothing / max-merge=3 / limit-refs=3 / limit-modes / me=3 / subme=3 / merange=57 / temporal-mvp / weightp / no-weightb / no-analyze-src-pics / deblock=0:0 / sao / no-sao-non-deblock / rd=4 / no-early-skip / rskip / no-fast-intra / no-tskip-fast / no-cu-lossless / no-b-intra / rdpenalty=0 / psy-rd=2.00 / psy-rdoq=1.00 / no-rd-refine / analysis-mode=0 / no-lossless / cbqpoffs=0 / crqpoffs=0 / rc=abr / bitrate=2783 / qcomp=0.60 / qpstep=4 / stats-write=0 / stats-read=2 / cplxblur=20.0 / qblur=0.5 / ipratio=1.40 / pbratio=1.30 / aq-mode=2 / aq-strength=1.00 / cutree / zone-count=0 / no-strict-cbr / qg-size=32 / no-rc-grain / qpmax=69 / qpmin=0 / sar=0 / overscan=0 / videoformat=5 / range=0 / colorprim=2 / transfer=2 / colormatrix=2 / chromaloc=0 / display-window=0 / max-cll=0,0 / min-luma=0 / max-luma=1023 / log2-max-poc-lsb=8 / vui-timing-info / vui-hrd-info / slices=1 / opt-qp-pps / opt-ref-list-length-pps / no-multi-pass-opt-rps / scenecut-bias=0.05 / no-opt-cu-delta-qp / no-aq-motion / no-hdr / no-hdr-opt / refine-level=5
Default : Yes
Forced : No
Audio #1
ID : 2
Format : AC-3
Format/Info : Audio Coding 3
Codec ID : A_AC3
Duration : 2 h 7 min
Bit rate mode : Constant
Bit rate : 384 kb/s
Channel(s) : 6 channels
Channel positions : Front: L C R, Side: L R, LFE
Sampling rate : 48.0 kHz
Frame rate : 31.250 FPS (1536 SPF)
Bit depth : 16 bits
Compression mode : Lossy
Stream size : 351 MiB (10%)
Language : Russian
Service kind : Complete Main
Default : No
Forced : No
Audio #2
ID : 3
Format : AAC
Format/Info : Advanced Audio Codec
Format profile : LC
Codec ID : A_AAC-2
Duration : 2 h 7 min
Bit rate : 384 kb/s
Channel(s) : 8 channels
Channel positions : Front: L C R, Side: L R, Back: L R, LFE
Sampling rate : 48.0 kHz
Frame rate : 46.875 FPS (1024 SPF)
Compression mode : Lossy
Delay relative to video : 20 ms
Stream size : 346 MiB (10%)
Language : English
Default : No
Forced : No
Audio #3
ID : 6
Format : MPEG Audio
Format version : Version 1
Format profile : Layer 3
Format settings : Joint stereo
Codec ID : A_MPEG/L3
Codec ID/Hint : MP3
Duration : 2 h 7 min
Bit rate mode : Constant
Bit rate : 320 kb/s
Channel(s) : 2 channels
Sampling rate : 48.0 kHz
Frame rate : 41.667 FPS (1152 SPF)
Compression mode : Lossy
Stream size : 293 MiB (8%)
Title : O'zbek tilida (A-Studio)
Default : Yes
Forced : Yes
Text #1
ID : 4
Format : UTF-8
Codec ID : S_TEXT/UTF8
Codec ID/Info : UTF-8 Plain Text
Duration : 1 h 45 min
Bit rate : 14 b/s
Count of elements : 251
Stream size : 11.4 KiB (0%)
Language : Russian
Default : Yes
Forced : No
Text #2
ID : 5
Format : VobSub
Muxing mode : zlib
Codec ID : S_VOBSUB
Codec ID/Info : Picture based subtitle format used on DVDs
Duration : 1 h 59 min
Bit rate : 5 454 b/s
Count of elements : 1367
Stream size : 4.68 MiB (0%)
Language : English
Default : No
Forced : No
Menu
00:00:00.000 : en:Chapter 01
00:07:06.926 : en:Chapter 02
00:17:30.883 : en:Chapter 03
00:26:05.855 : en:Chapter 04
00:31:14.038 : en:Chapter 05
00:39:29.075 : en:Chapter 06
00:46:17.566 : en:Chapter 07
00:52:11.169 : en:Chapter 08
00:58:50.360 : en:Chapter 09
01:05:58.579 : en:Chapter 10
01:13:01.293 : en:Chapter 11
01:24:16.301 : en:Chapter 12
01:31:50.880 : en:Chapter 13
01:41:10.981 : en:Chapter 14
01:46:07.611 : en:Chapter 15
01:56:19.597 : en:Chapter 16

Lavhalar



So‘ngi marta tahrirlandi: Abdulloh (2018-02-02 00:59), Jami tahrirlangan 2 marta
Profil ShX

MRLG

Jins:
Yigit
Staj:
1 yil 1 oy
Xabarlar:
465
Taqiq:

Filmni bezatishda qator xatoliklarga yo'l qo'ygansiz. Shularni to'g'rilab chiqing.
1. Reliz shapkasida Bir nechta xatoliklarga yo'l qo'ygansiz. Shulardan biri Davlatlar nomi (Bu ma'lumotlarni joylash majburiy emas).
2. Reliz shapkasi ushbu ko'rinishda bo'lishi kerak:
La La Lend / Ла-Ла Ленд / La La Land (Damien Chazelle) [2016, musiqiy, drama, melodrama, komediya, musiqa] BDRip 1080p HEVC 10bit (Sub Eng + Rus)
3. Reliz sarlavhasi 3 xil tilda yozilishi kerak. O'zbek, Rus, Original tilda.
La La Lend / Ла-Ла Ленд / La La Land
4. Sarlavhadagi "Qo'shimcha ma'lumot..." bu qator ortiqcha. O'chiring.
5. Relizni ketma-ketligi ham noto'g'ri tuzilgan. Aslida mana bunday bo'ladi.
Chiqqan yili:
Davlat:
Janr:
Davomiyligi:
Tarjima:
Subtitrlar:
Rejissiyor:
Rollarda:
Tavsif:
va tavsifdan so'ng.
Qo'shimcha ma'lumotlar:
Sifat:
Format:
Video:
Audio:
P.S.: Agar ovoz yo'laklari filmda bir nechta bo'lsa audio qatori raqamlarda ko'rsatiladi.
Audio #1:
Audio #2:
Audio #3:

Mavzu yaratish 02-Fev-2018 00:25 (4 soat o‘tgach)

Iqitibos

Profil ShX

vuelta

Jins:
Yigit
Staj:
1 yil 1 oy
Xabarlar:
294
Taqiq:

yaxshi izoh

Mavzu yaratish 02-Fev-2018 10:49 (10 soat o‘tgach)

Iqitibos

Profil ShX
Xabarlarni ko‘rsatish:    

Hozirgi vaqt: 21-Sen 05:49

Vaqtlar farqi: UTC + 5



Siz mavzu yaratishingiz mumkin emas
Siz xabarlarga javob qaytarishingiz mumkin emas
Siz o‘z xabarlaringizni tahrirlashingiz mumkin emas
Siz o‘z xabarlaringizni o‘chirishingiz mumkin emas
Siz so‘rovlarda ovoz berishingiz mumkin emas
Siz xabalarga fayllarni biriktirishingiz mumkin emas
Siz fayllarni ko‘chirishingiz mumkin emas