˂
˃
Tarqatmalar statistikasi
Ko‘chirmoqdaman: [ 3 ]
Ko‘chirib bo‘ldim: [ 8 ]
 
     
 
 

UmarShoh ®

Jins:
Yigit
Staj:
8 oy 13 kun
Xabarlar:
371
Taqiq:

-Laylaklar | Аисты | Storks- Chiqqan yili: 2016
Davlat: AQSH
Janr: Multfilm, Komediya, Oilaviy
Davomiyligi: 01:26:57
Tarjima: Professional (dublyaj qilingan)
Tarjima 2: Professional (dublyaj qilingan)
Rejissyorlar: Nicholas Stoller, Doug Sweetland Rollarni ovozlashtirganlar: Andy Samberg, Cathy Crown, Kelsey Grammer, Jennifer Aniston, Ty Burrell,
Anton Starkman, Kigen-Michael Kee, Jordan Peel, Danny Trejo, Steve Glickman.
Tavsif: Аисты приносят детей... или, во всяком случае, раньше приносили.
Теперь же они занимаются доставкой посылок для огромного сайта интернет-продаж. Джуниор, лучший аист в курьерской компании,
должен пойти на повышение, но он случайно активирует машину для создания детей и получает очаровательную, но совершенно незапланированную девочку.
Пытаясь доставить эту «посылку» до того, как босс узнает о произошедшем, Джуниор и его подруга Лютик,
единственный человек на Горе Аистов, решаются на свою первую доставку ребёнка и отправляются в безумное и насыщенное удивительными
открытиями приключение, благодаря которому многие семьи могут стать полными, а аисты — вернуться к своей истинной миссии на Земле.
Videoning sifati: BDRip 1080p Hevc 10bit
Video format: MKV
Video: HEVC, 1920x804, 7333kbps, 23.976 fps
Audio: AC-3, 48000Hz, 384 Kbps, 6ch |Ruscha
Audio 2: AC-3, 48000Hz, 640 Kbps, 6ch |Inglizcha
Audio 3: MP3, 44100Hz, 128 Kbps, 2ch |O'zbekcha (My5)
Subtitrlar: Yo'q

Media Info

General
Unique ID : 23644907036600711147816166394214590568 (0x11C9D7EC4CD6C5468EFBB6C40991A868)
Complete name : D:\Media\Multfilmlar\Multfilmlar\042) Storks [ 2016 BDRip 1080p x265 ] O'zbek tilida.mkv
Format : Matroska
Format version : Version 4 / Version 2
File size : 5.16 GiB
Duration : 1 h 26 min
Overall bit rate : 8 487 kb/s
Movie name : Storks (2016) - HEVC.CLUB
Encoded date : UTC 2018-09-29 14:40:24
Writing application : mkvmerge v26.0.0 ('In The Game') 64-bit
Writing library : libebml v1.3.6 + libmatroska v1.4.9
Cover : Yes
Attachments : cover.jpg
Video
ID : 1
Format : HEVC
Format/Info : High Efficiency Video Coding
Format profile : Main 10@L4.1@High
Codec ID : V_MPEGH/ISO/HEVC
Duration : 1 h 26 min
Bit rate : 7 333 kb/s
Width : 1 920 pixels
Height : 804 pixels
Display aspect ratio : 2.40:1
Frame rate mode : Constant
Frame rate : 23.976 (24000/1001) FPS
Color space : YUV
Chroma subsampling : 4:2:0
Bit depth : 10 bits
Bits/(Pixel*Frame) : 0.198
Stream size : 4.45 GiB (86%)
Title : HEVC.CLUB
Writing library : x265 2.0+18-b0ec268aef60:[Windows][GCC 6.1.0][64 bit] 10bit
Encoding settings : wpp / ctu=32 / min-cu-size=8 / max-tu-size=32 / tu-intra-depth=2 / tu-inter-depth=2 / me=2 / subme=5 / merange=60 / no-rect / no-amp / max-merge=2 / temporal-mvp / no-early-skip / no-rskip / rdpenalty=0 / no-tskip / no-tskip-fast / no-strong-intra-smoothing / no-lossless / no-cu-lossless / no-constrained-intra / no-fast-intra / open-gop / no-temporal-layers / interlace=0 / keyint=250 / min-keyint=23 / scenecut=40 / rc-lookahead=60 / lookahead-slices=1 / bframes=8 / bframe-bias=0 / b-adapt=2 / ref=6 / limit-refs=3 / no-limit-modes / weightp / weightb / aq-mode=1 / qg-size=32 / aq-strength=0.50 / cbqpoffs=0 / crqpoffs=0 / rd=4 / psy-rd=2.00 / rdoq-level=1 / psy-rdoq=3.00 / log2-max-poc-lsb=8 / no-rd-refine / signhide / deblock=-3:-3 / no-sao / no-sao-non-deblock / b-pyramid / no-cutree / no-intra-refresh / rc=crf / crf=20.8 / qcomp=0.80 / qpmin=0 / qpmax=69 / qpstep=6 / vbv-maxrate=50000 / vbv-bufsize=50000 / crf-max=0.0 / ipratio=1.50 / pbratio=1.10
Default : Yes
Forced : Yes
Color range : Limited
Matrix coefficients : BT.709
Audio #1
ID : 2
Format : AC-3
Format/Info : Audio Coding 3
Commercial name : Dolby Digital
Codec ID : A_AC3
Duration : 1 h 26 min
Bit rate mode : Constant
Bit rate : 384 kb/s
Channel(s) : 6 channels
Channel layout : L R C LFE Ls Rs
Sampling rate : 48.0 kHz
Frame rate : 31.250 FPS (1536 SPF)
Bit depth : 16 bits
Compression mode : Lossy
Stream size : 239 MiB (5%)
Title : iTunes
Language : Russian
Service kind : Complete Main
Default : Yes
Forced : No
Audio #2
ID : 3
Format : AC-3
Format/Info : Audio Coding 3
Commercial name : Dolby Digital
Codec ID : A_AC3
Duration : 1 h 26 min
Bit rate mode : Constant
Bit rate : 640 kb/s
Channel(s) : 6 channels
Channel layout : L R C LFE Ls Rs
Sampling rate : 48.0 kHz
Frame rate : 31.250 FPS (1536 SPF)
Bit depth : 16 bits
Compression mode : Lossy
Stream size : 398 MiB (8%)
Title : Original
Language : English
Service kind : Complete Main
Default : No
Forced : No
Audio #3
ID : 4
Format : MPEG Audio
Format version : Version 1
Format profile : Layer 3
Format settings : Joint stereo / MS Stereo
Codec ID : A_MPEG/L3
Codec ID/Hint : MP3
Duration : 1 h 26 min
Bit rate mode : Constant
Bit rate : 128 kb/s
Channel(s) : 2 channels
Sampling rate : 44.1 kHz
Frame rate : 38.281 FPS (1152 SPF)
Compression mode : Lossy
Stream size : 79.6 MiB (2%)
Title : My5 (UmarShoh_FL)
Writing library : LAME3.99.5
Language : Uzbek
Default : No
Forced : No
Menu
00:00:00.000 : en:Chapter 1
00:10:26.500 : en:Chapter 2
00:20:35.734 : en:Chapter 3
00:30:24.405 : en:Chapter 4
00:39:30.034 : en:Chapter 5
00:50:24.479 : en:Chapter 6
00:59:24.435 : en:Chapter 7
01:07:06.022 : en:Chapter 8
01:14:28.297 : en:Chapter 9
01:20:53.598 : en:Chapter 10


So‘ngi marta tahrirlandi: UmarShoh (2018-10-06 10:45), Jami tahrirlangan 1 marta
Profil ShX

UmarShoh ®

Jins:
Yigit
Staj:
8 oy 13 kun
Xabarlar:
371
Taqiq:

Xurmatli foydalanuvchilar! Ushbu reliz ertadan tarqatila boshlaydi!
Noqulayliklar uchun oldindan uzur so'rayman!
aa aa aa

Mavzu yaratish 29-Sen-2018 20:49 (4 daqiqa o‘tgach)

Iqitibos

Profil ShX

N.U.R.I.K.B.E.K

Jins:
Yigit
Staj:
1 yil
Xabarlar:
307

Qayerdan: Jizzax. Paxtakor

Taqiq:

UmarShoh, tavsifini xam uzb qilipqo'ying

Mavzu yaratish 29-Sen-2018 20:54 (5 daqiqa o‘tgach)

Iqitibos

Profil ShX

Topik Vaqtincha tarqatmalar forumidan 2016 yil multfilmlari ga ko‘chirildi
AxeL

Mavzu yaratish 01-Okt-2018 00:22 (1 kun 3 soat o‘tgach)

Xabarlarni ko‘rsatish:    

Hozirgi vaqt: 19-Noy 04:40

Vaqtlar farqi: UTC + 5



Siz mavzu yaratishingiz mumkin emas
Siz xabarlarga javob qaytarishingiz mumkin emas
Siz o‘z xabarlaringizni tahrirlashingiz mumkin emas
Siz o‘z xabarlaringizni o‘chirishingiz mumkin emas
Siz so‘rovlarda ovoz berishingiz mumkin emas
Siz xabalarga fayllarni biriktirishingiz mumkin emas
Siz fayllarni ko‘chirishingiz mumkin emas