˂
˃
 

Dj.Max ®

Jins:
Yigit
Staj:
5 oy 23 kun
Xabarlar:
23

Qayerdan: Farg'ona

Taqiq:

Laylaklar / Аисты / Storks-- Chiqqan yili: 2016
Davlat: AQSH
Janr: Multfilm, Komediya, Oilaviy
Davomiyligi: 01:26:57
Tarjima: [MY5 TV] telekanali dublyaji--Rejissyor: Nikolas Stoller / Dag Svitlend--Rollarda: Endi Semberg, Keti Kraun, Kelsi Gremmer, Djennifer Eniston, Tay Burell, Anton Starkman, Kigen-Maykl Ki, Djordan Pil, Denni Trexo, Stiv Glikman--Tavsif: Laylaklar bolalarni olib kelishadi... yoki, nima bo'lgan taqdirda ham, oldinlari olib kelishardi. Endilikda ular kattagina internet do'kon sayti uchun jo'natmalarni eltib berish bilan shug`ullanishmoqda. Junior, eltuvchi kompaniyaning eng yaxshi laylagi, yaqin orada uni mansabi oshirilishi kerak edi, lekin u tasodifan bola yasaydigan mashinani faollashtirib yuboradi va go`zal, betakror va rejalashtirilmagan qizaloq paydo bo`ladi.
Boss bo'lgan voqea haqida bilib qolmasidan, ushbu "jo'natma"ni eltib berishga harakat qilishadi. Junior va uning do'sti Lyutik, Laylaklar g`oridagi yagona inson, o`zlarining birinchi bolani yetkazib berishga qaror qilishadi va aqlga sig`maydigan va hayratomus sarguzashtlarga boy yo`lga otlanishadi, ular tufayli ko`plab oilalar ko`payishi mumkin, laylaklar esa - o`zlarining yerdagi haqiqiy topshiriqlariga qaytishadi.--Sifat: BDRip 720p (Asl manbaa: Blu-Ray Remux (1080p))
Format: MP4
Video: 1280x536 (2.40:1) at 23.976 fps, AVC at 2 544 kbps avg, 0.155 bit/pixel
Audio: Uzbek / AAC / 2.0 / 48 kHz / 128 kbps / [MY5 TV]
Audio: Rus / AAC / 2.0 / 48 kHz / 128 kbps / [KinoGadget]
Audio: Ingliz / AAC / 2.0 / 48 kHz / 128 kbps / [Orginal]
Hajmi: 1.78 GB-

Media Info

General
Complete name: [2016] Laylaklar [Dj.Max].mp4
Format: MPEG-4
Format profile : Base Media
Codec ID: isom (isom/avc1)
File size: 1.78 GiB
Duration: 1 h 26 min
Overall bit rate mode: Variable
Overall bit rate: 2 928 kb/s
Writing application: My MP4Box GUI 0.6.0.6 <http://my-mp4box-gui.zymichost.com>
Video
ID: 1
Format: AVC
Format/Info: Advanced Video Codec
Format profile: High@L4.1
Format settings: CABAC / 9 Ref Frames
Format settings, CABAC: Yes
Format settings, ReFrames: 9 frames
Codec ID: avc1
Codec ID/Info: Advanced Video Coding
Duration: 1 h 26 min
Bit rate: 2 544 kb/s
Maximum bit rate: 12.4 Mb/s
Width: 1 280 pixels
Height: 536 pixels
Display aspect ratio: 2.40:1
Frame rate mode: Constant
Frame rate: 23.976 (24000/1001) FPS
Color space: YUV
Chroma subsampling: 4:2:0
Bit depth: 8 bits
Scan type: Progressive
Bits/(Pixel*Frame): 0.155
Stream size: 1.55 GiB (87%)
Title: Aisty_2016_KinoGadget_track1.h264
Writing library: x264 core 148 r2638 7599210
Encoding settings: cabac=1 / ref=9 / deblock=1:1:1 / analyse=0x3:0x113 / me=umh / subme=7 / psy=1 / psy_rd=1.00:0.15 / mixed_ref=1 / me_range=32 / chroma_me=1 / trellis=2 / 8x8dct=1 / cqm=0 / deadzone=21,11 / fast_pskip=1 / chroma_qp_offset=-3 / threads=3 / lookahead_threads=1 / sliced_threads=0 / nr=0 / decimate=1 / interlaced=0 / bluray_compat=0 / constrained_intra=0 / bframes=8 / b_pyramid=2 / b_adapt=2 / b_bias=0 / direct=1 / weightb=1 / open_gop=0 / weightp=2 / keyint=240 / keyint_min=23 / scenecut=40 / intra_refresh=0 / rc_lookahead=40 / rc=crf / mbtree=1 / crf=19.0 / qcomp=0.60 / qpmin=0 / qpmax=69 / qpstep=4 / vbv_maxrate=62500 / vbv_bufsize=78125 / crf_max=0.0 / nal_hrd=none / filler=0 / ip_ratio=1.40 / aq=1:1.00
Audio #1
ID: 2
Format: AAC
Format/Info: Advanced Audio Codec
Format profile: LC
Codec ID: mp4a-40-2
Duration: 1 h 26 min
Bit rate mode: Variable
Bit rate: 125 kb/s
Maximum bit rate: 189 kb/s
Channel(s): 2 channels
Channel positions: Front: L R
Sampling rate: 48.0 kHz
Frame rate: 46.875 FPS (1024 SPF)
Compression mode: Lossy
Stream size: 78.0 MiB (4%)
Title: Laylaklar (O'zbek) [Dj.Max].aac
Audio #2
ID: 3
Format: AAC
Format/Info: Advanced Audio Codec
Format profile: LC
Codec ID: mp4a-40-2
Duration: 1 h 26 min
Bit rate mode: Variable
Bit rate: 125 kb/s
Maximum bit rate: 203 kb/s
Channel(s): 2 channels
Channel positions: Front: L R
Sampling rate: 48.0 kHz
Frame rate: 46.875 FPS (1024 SPF)
Compression mode: Lossy
Stream size: 77.9 MiB (4%)
Title: Laylaklar (Rus) [Dj.Max].aac
Audio #3
ID: 4
Format: AAC
Format/Info: Advanced Audio Codec
Format profile: LC
Codec ID: mp4a-40-2
Duration: 1 h 26 min
Bit rate mode: Variable
Bit rate: 125 kb/s
Maximum bit rate: 195 kb/s
Channel(s): 2 channels
Channel positions: Front: L R
Sampling rate: 48.0 kHz
Frame rate: 46.875 FPS (1024 SPF)
Compression mode: Lossy
Stream size: 77.9 MiB (4%)
Title: Laylaklar (Ingliz) [Dj.Max].aac
- © Template by Dj.Max


So‘ngi marta tahrirlandi: Dj.Max (2018-10-02 10:54), Jami tahrirlangan 1 marta
Profil ShX

UmarShoh

Jins:
Yigit
Staj:
9 oy 6 kun
Xabarlar:
371
Taqiq:

Sifat: BDRip Blu-Ray Remux (1080p)
bu malumotni to'g'irlab qo'ying !

Mavzu yaratish 01-Okt-2018 18:49 (2 soat 25 daqiqa o‘tgach)

Iqitibos

Profil ShX

MRLG

Jins:
Yigit
Staj:
1 yil 3 oy
Xabarlar:
526
Taqiq:

Ba'zi kamchiliklar to'g'rilandi. O'ylaymanki, multfilm shunga arziydi.

Mavzu yaratish 01-Okt-2018 19:00 (10 daqiqa o‘tgach)

Iqitibos

Profil ShX
Xabarlarni ko‘rsatish:    

Hozirgi vaqt: 11-Dek 20:14

Vaqtlar farqi: UTC + 5



Siz mavzu yaratishingiz mumkin emas
Siz xabarlarga javob qaytarishingiz mumkin emas
Siz o‘z xabarlaringizni tahrirlashingiz mumkin emas
Siz o‘z xabarlaringizni o‘chirishingiz mumkin emas
Siz so‘rovlarda ovoz berishingiz mumkin emas
Siz xabalarga fayllarni biriktirishingiz mumkin emas
Siz fayllarni ko‘chirishingiz mumkin emas