˂
˃
Tarqatmalar statistikasi
Ko‘chirmoqdaman: [ 6 ]
 
     
 
 

Unofficial ®

Jins:
Yigit
Staj:
8 oy 21 kun
Xabarlar:
446

Qayerdan: Nukus

Taqiq:

-Marsda yolg'iz | Марсианин | The martian- -Chiqqan yili: 2015
Davlat: AQSH, Buyuk Britaniya
Janr: Fantastika, Sarguzasht
Davomiyligi: 02:05:04
Tarjima: Professional (dublyaj qilingan)-Rejissyor: Ridley Skot-Rollarda: Met Deymon, Jessika Chesteyn, Chivatel Ejiofor, Kristen Vig, Jef Daniels, Maykl Peniya, Shon Bin, Keyt Mara, Sebastyan Sten, Aksel Xenni, Benedik Vong, Makkenzi Devis-Tavsif: Ish jarayonida Marsning "Ares-3" missiyasi kelajakda qum bo'roni tufayli sayyorani zudlik bilan tark etishga majbur bo'ldi. Muhandis va biolog Mark Vutni qum bo'roni paytida jarohat oldi. Missiya xodimlari, uni o'lik deb hisoblashdi va uni Marsga tashlab ketishga majbur bo'lishdi, lekin, Mark tirik edi. Mark halok bo'lmagan edi va u Marsda yashash uchun harakat qildi va uni evakuatsiya qilib olishdi.- -Videoning sifati: TVRip
Video format: AVI-Video: AVC, 1024x576, 1 332 kb/s, 25.000 FPS
Audio: AAC, 128 kb/s, 2 channels, 48.0 kHz
Audio #2: AAC, 128 kb/s, 2 channels, 48.0 kHz-Subtitrlar: Yo'q-

Media Info

General
ID                             : 25 (0x19)
Format                         : MPEG-TS
File size                      : 1.46 GiB
Duration                       : 2 h 5 min
Overall bit rate mode          : Variable
Overall bit rate               : 1 673 kb/s
FileExtension_Invalid          : ts m2t m2s m4t m4s tmf ts tp trp ty
Video
ID                             : 222 (0xDE)
Menu ID                        : 20 (0x14)
Format                         : AVC
Format/Info                    : Advanced Video Codec
Format profile                 : Main@L3
Format settings, CABAC         : Yes
Format settings, ReFrames      : 4 frames
Format settings, GOP           : M=4, N=24
Codec ID                       : 27
Duration                       : 2 h 5 min
Bit rate                       : 1 332 kb/s
Width                          : 1024 pixels
Height                         : 576 pixels
Display aspect ratio           : 16:9
Frame rate                     : 25.000 FPS
Standard                       : PAL
Color space                    : YUV
Chroma subsampling             : 4:2:0
Bit depth                      : 8 bits
Scan type                      : Interlaced
Scan type, store method        : Separated fields
Scan order                     : Top Field First
Bits/(Pixel*Frame)             : 0.128
Stream size                    : 1.16 GiB (80%)
Color range                    : Limited
Color primaries                : BT.601 PAL
Transfer characteristics       : BT.470 System B, BT.470 System G
Matrix coefficients            : BT.601
Audio #1
ID                             : 322 (0x142)
Menu ID                        : 20 (0x14)
Format                         : MPEG Audio
Format version                 : Version 1
Format profile                 : Layer 2
Mode                           : Joint stereo
Codec ID                       : 3
Duration                       : 2 h 5 min
Bit rate mode                  : Constant
Bit rate                       : 128 kb/s
Channel(s)                     : 2 channels
Sampling rate                  : 48.0 kHz
Compression mode               : Lossy
Delay relative to video        : -1 s 54 ms
Stream size                    : 115 MiB (8%)
Audio #2
ID                             : 3222 (0xC96)
Menu ID                        : 20 (0x14)
Format                         : MPEG Audio
Format version                 : Version 1
Format profile                 : Layer 2
Mode                           : Joint stereo
Codec ID                       : 4
Duration                       : 2 h 5 min
Bit rate mode                  : Constant
Bit rate                       : 128 kb/s
Channel(s)                     : 2 channels
Sampling rate                  : 48.0 kHz
Compression mode               : Lossy
Delay relative to video        : -1 s 38 ms
Stream size                    : 115 MiB (8%)
Menu
ID                             : 120 (0x78)
Menu ID                        : 20 (0x14)
Duration                       : 2 h 5 min
List                           : 222 (0xDE) (AVC) / 322 (0x142) (MPEG Audio) / 3222 (0xC96) (MPEG Audio)
Profil ShX

N.U.R.I.K.B.E.K

Jins:
Yigit
Staj:
1 yil 1 oy
Xabarlar:
344

Qayerdan: Jizzax. Paxtakor

Taqiq:

Unofficial, buni taxlamabsizda

Mavzu yaratish 21-Noy-2018 14:20 (2 soat 25 daqiqa o‘tgach)

Iqitibos

Profil ShX

Unofficial ®

Jins:
Yigit
Staj:
8 oy 21 kun
Xabarlar:
446

Qayerdan: Nukus

Taqiq:

6818Unofficial, buni taxlamabsizda
jon deb taxlardim, lekin hozirgi paytda vaqtim kamroqda, nazorat ishlariga tayyorgarlik qilayapmiz, referat kabilar

Mavzu yaratish 21-Noy-2018 17:42 (3 soat o‘tgach)

Iqitibos

Profil ShX

AxeL

Jins:
Yigit
Staj:
8 oy 30 kun
Xabarlar:
613

Qayerdan: Gronland, Norway

Taqiq:

6817
Audio: AAC, 128 kb/s, 2 channels, 48.0 kHz
Audio #2: AAC, 128 kb/s, 2 channels, 48.0 kHz
Qiziq qanaqa tuner yoki TV dan yozib olyapsiz, yoki TV dagilar ikki tilda berishyaptimi?

Mavzu yaratish 21-Noy-2018 19:20 (1 soat 37 daqiqa o‘tgach)

Iqitibos

Profil ShX

Unofficial ®

Jins:
Yigit
Staj:
8 oy 21 kun
Xabarlar:
446

Qayerdan: Nukus

Taqiq:

6827
6817
Audio: AAC, 128 kb/s, 2 channels, 48.0 kHz
Audio #2: AAC, 128 kb/s, 2 channels, 48.0 kHz
Qiziq qanaqa tuner yoki TV dan yozib olyapsiz, yoki TV dagilar ikki tilda berishyaptimi?
Oddiy tuner

Mavzu yaratish 21-Noy-2018 19:41 (21 daqiqa o‘tgach)

Iqitibos

Profil ShX

Downloader

Jins:
Ko‘rsatilmagan
Staj:
1 oy 7 kun
Xabarlar:
8
Taqiq:

AxeL, Hozir shunaqa ikkita ovozli qo'yilayapti ayrim kanallarda... Kecha men KinoTeatrdan Lara Kroftni ko'rdim. Hozirgi vaqtda yangi chiqayotgan televizorlarda xuddi kompyutyerga o'xshab 1-chi ovozdan 2-chi ovozga olsa bo'larkan...

Mavzu yaratish 22-Noy-2018 01:33 (5 soat o‘tgach)

Iqitibos

Profil ShX
Xabarlarni ko‘rsatish:    

Hozirgi vaqt: 17-Dek 10:31

Vaqtlar farqi: UTC + 5



Siz mavzu yaratishingiz mumkin emas
Siz xabarlarga javob qaytarishingiz mumkin emas
Siz o‘z xabarlaringizni tahrirlashingiz mumkin emas
Siz o‘z xabarlaringizni o‘chirishingiz mumkin emas
Siz so‘rovlarda ovoz berishingiz mumkin emas
Siz xabalarga fayllarni biriktirishingiz mumkin emas
Siz fayllarni ko‘chirishingiz mumkin emas