Tarqatmalar statistikasi
Yoʻq
 
     
 
 

Javohir123 ®

Jins:
Yigit
Staj:
11 oy 21 kun
Xabarlar:
48
Taqiq:

--Mashinalar 3 | Тачки 3 | Cars 3-- Davlat: AQSH
Janr:Multfilm, kulguli, oilaviy, sarguzasht, sport
Davomiyligi: 01:42:24
Chiqqan yili: 2017-Tarjima: Professional (dublyaj qilingan) O'zbek Tilida
Rejissyor: Brian Fee-Rollarda: Oven Vilsen, Kristelo Alonzo, Kris Kuper, Neyton Fillion, Larri Kabelshik, Armi Hammer, Rey Malotsi, Toni Shelub, Bonnie Hunt, Leah DeLariya-Описание: Герой все еще продолжает показывать лучшие результаты на всех турнирах, однако победы даются ему не так легко, а конкуренция становится все жестче. Молнию Маккуина ждут захватывающие приключения, где он встретит новых друзей, а также поймет, что не только скорость и мощность мотора делают гонщика чемпионом.-7.061 (8431) / КиноПоиск
7.00 (18 210) / IMDb
-Videoning sifati: WEB-DL
Формат: MKV-Video: MPEG4 Video (H264) 1920x804 23.976fps
Audio: Dolby AC3 48000Hz 6ch 384kbps Rus
Audio: Dolby AC3 48000Hz 6ch 384kbps Eng
Audio : MP3 44100Hz stereo 128kbps Uzb

MediaInfo

General
Unique ID : 184318198431499326478294347908837292333 (0x8AAA64CDD0661E1F8D98F01E0A18392D)
Complete name :
Format : Matroska
Format version : Version 4 / Version 2
File size : 3.85 GiB
Duration : 1 h 42 min
Overall bit rate : 5 379 kb/s
Encoded date : UTC 2017-11-22 13:06:08
Writing application : mkvmerge v9.2.0 ('Photograph') 64bit
Writing library : libebml v1.3.3 + libmatroska v1.4.4
Video
ID : 1
Format : AVC
Format/Info : Advanced Video Codec
Format profile : High@L4
Format settings, CABAC : Yes
Format settings, RefFrames : 5 frames
Codec ID : V_MPEG4/ISO/AVC
Duration : 1 h 42 min
Bit rate : 4 480 kb/s
Width : 1 920 pixels
Height : 804 pixels
Display aspect ratio : 2.40:1
Frame rate mode : Constant
Frame rate : 23.976 FPS
Color space : YUV
Chroma subsampling : 4:2:0
Bit depth : 8 bits
Scan type : Progressive
Bits/(Pixel*Frame) : 0.121
Stream size : 3.20 GiB (83%)
Language : English
Default : Yes
Forced : No
Color range : Limited
Color primaries : BT.709
Transfer characteristics : BT.709
Matrix coefficients : BT.709
Audio #1
ID : 2
Format : AC-3
Format/Info : Audio Coding 3
Format settings, Endianness : Big
Codec ID : A_AC3
Duration : 1 h 42 min
Bit rate mode : Constant
Bit rate : 384 kb/s
Channel(s) : 6 channels
Channel positions : Front: L C R, Side: L R, LFE
Sampling rate : 48.0 kHz
Frame rate : 31.250 FPS (1536 SPF)
Bit depth : 16 bits
Compression mode : Lossy
Stream size : 281 MiB (7%)
Title : iTunes
Language : Russian
Service kind : Complete Main
Default : Yes
Forced : No
Audio #2
ID : 3
Format : AC-3
Format/Info : Audio Coding 3
Format settings, Endianness : Big
Codec ID : A_AC3
Duration : 1 h 42 min
Bit rate mode : Constant
Bit rate : 384 kb/s
Channel(s) : 6 channels
Channel positions : Front: L C R, Side: L R, LFE
Sampling rate : 48.0 kHz
Frame rate : 31.250 FPS (1536 SPF)
Bit depth : 16 bits
Compression mode : Lossy
Stream size : 281 MiB (7%)
Title : Original
Language : English
Service kind : Complete Main
Default : No
Forced : No
Audio #3
ID : 4
Format : MPEG Audio
Format version : Version 1
Format profile : Layer 3
Mode : Joint stereo
Mode extension : MS Stereo
Codec ID : A_MPEG/L3
Codec ID/Hint : MP3
Duration : 1 h 42 min
Bit rate mode : Constant
Bit rate : 128 kb/s
Channel(s) : 2 channels
Sampling rate : 44.1 kHz
Frame rate : 38.281 FPS (1152 SPF)
Compression mode : Lossy
Stream size : 93.7 MiB (2%)
Title : Javohir
Writing library : LAME3.98.2
Language : Uzbek
Default : No
Forced : No


So‘ngi marta tahrirlandi: Javohir123 (2017-11-24 01:03), Jami tahrirlangan 2 marta
Profil ShX

BestBoy

Jins:
Yigit
Staj:
11 oy 15 kun
Xabarlar:
63
Taqiq:

Gap yoq

Mavzu yaratish 23-Noy-2017 22:49 (3 soat o‘tgach)

Iqitibos

Profil ShX

Javohir123 ®

Jins:
Yigit
Staj:
11 oy 21 kun
Xabarlar:
48
Taqiq:

rahmat

Mavzu yaratish 23-Noy-2017 23:53 (1 soat 3 daqiqa o‘tgach)

Iqitibos

Profil ShX

Frozen

Jins:
Yigit
Staj:
1 yil 1 oy
Xabarlar:
58

Qayerdan: Toshkent, Navoi

Taqiq:

Qoyil, Gap yo! Omad

Mavzu yaratish 24-Noy-2017 01:57 (2 soat 3 daqiqa o‘tgach)

Iqitibos

Profil ShX

vuelta

Jins:
Yigit
Staj:
1 yil 1 oy
Xabarlar:
294
Taqiq:

xa zor chiqgan

Mavzu yaratish 24-Noy-2017 10:41 (8 soat o‘tgach)

Iqitibos

Profil ShX

nurillo123

Jins:
Ko‘rsatilmagan
Staj:
10 oy 22 kun
Xabarlar:
16
Taqiq:

Javohir123,qasi pragramadan uzbecha qip vidoga joylovosiz pragramani nominei yozvorin

Mavzu yaratish 28-Noy-2017 19:10 (4 kun o‘tgach)

Iqitibos

Profil ShX

MRLG

Jins:
Yigit
Staj:
1 yil 1 oy
Xabarlar:
465
Taqiq:

shu multikni 1,2 qismlarini o'zbekchasi hech kimda yo'qmikan ?

Mavzu yaratish 09-Dek-2017 16:49 (10 kun o‘tgach)

Iqitibos

Profil ShX
Xabarlarni ko‘rsatish:    

Hozirgi vaqt: 21-Sen 11:27

Vaqtlar farqi: UTC + 5



Siz mavzu yaratishingiz mumkin emas
Siz xabarlarga javob qaytarishingiz mumkin emas
Siz o‘z xabarlaringizni tahrirlashingiz mumkin emas
Siz o‘z xabarlaringizni o‘chirishingiz mumkin emas
Siz so‘rovlarda ovoz berishingiz mumkin emas
Siz xabalarga fayllarni biriktirishingiz mumkin emas
Siz fayllarni ko‘chirishingiz mumkin emas