˂
˃
Tarqatmalar statistikasi
Yoʻq
 
     
 
 

Vampire_1987 ®

Jins:
Ko‘rsatilmagan
Staj:
1 yil 2 oy
Xabarlar:
115
Taqiq:

--Maxfiy Josus | Секретный агент | Unlocked-- Davlat: Buyuk Britaniya
Janr: jangari, triller
Chiqqan yili: 2016
Davomiyligi: 01:38:22
Tarjima: Professional (Kop ovozli kadrorti ) Uzb-Rus-Eng Orginal
Subtitr: Eng--Rejissiyor: Maykl Apted--Rollarda: Numi Rapas, Orlando Blum, Toni Kollett, Maykl Duglas, Djon Malkovich, Akshay Kumar, Tosin Koul, Edelayo Ededayo, Brayan Kaspe, Aymen Xamdushi--Tavsif: U jahon darajasida yashirin agent. Bu safar uning vazifasi Londonga biologik hujumni oldini olishdir. Katta josuslik o'yinida ishtirok etganida, u ikkilamchi standartlar, paranoyalar, jazosizlik va xiyonat dunyosini muqarrar ravishda uchratadi. Atrofida juda ko'p do'st bor, lekin kimga ishonish mumkin? Ularning qaysi biri terrorchilar? Londonni qutqarish uchun u o'zini qoidalar bilan o'ynashi kerak...--Qoshimcha Malumot Ovoz Yolakchasi Haqida:O'zbek Tilidagi Ovoz Yo'lakchasi Juda Yaxshi Bir Biriga Yopishgan 99% Desak Bo'ladi Agar Ovoz Yolakchasi Haqida Biror bir Etirozingiz Bo'las Kamentariyada Yozib Qoldiring--Video Kachestva: BDRemux
Video Format: MKV
Video: MPEG4 Video (H264) 1920x1080 24fps | 31.9 Mb/s
Audio # 1: MP3 48000Hz stereo 192kbps [Ozbek Tilida]
Audio # 2: Dolby AC3 48000Hz 6ch 384kbps [Rus Tilida (i Tunes)]
Audio # 3: DTS 48000Hz 6ch 6912kbps [ Eng Orginal]--

MediaInfo

General
Unique ID : 195292212238679531184970259772047835602 (0x92EBE975447AD29E95A19A27098341D2)
Format : Matroska
Format version : Version 4 / Version 2
File size : 24.8 GiB
Duration : 1 h 38 min
Overall bit rate mode : Variable
Overall bit rate : 36.2 Mb/s
Encoded date : UTC 2017-09-01 03:30:14
Writing application : mkvmerge v7.1.0 ('Good Love') 64bit built on Jul 27 2014 13:06:55
Writing library : libebml v1.3.0 + libmatroska v1.4.1
Video
ID : 3
Format : AVC
Format/Info : Advanced Video Codec
Format profile : High@L4.1
Format settings, CABAC : Yes
Format settings, RefFrames : 3 frames
Codec ID : V_MPEG4/ISO/AVC
Duration : 1 h 38 min
Bit rate mode : Variable
Bit rate : 31.9 Mb/s
Maximum bit rate : 34.0 Mb/s
Width : 1 920 pixels
Height : 1 080 pixels
Display aspect ratio : 16:9
Frame rate mode : Constant
Frame rate : 24.000 FPS
Standard : NTSC
Color space : YUV
Chroma subsampling : 4:2:0
Bit depth : 8 bits
Scan type : Progressive
Bits/(Pixel*Frame) : 0.641
Stream size : 21.9 GiB (88%)
Default : No
Forced : No
Color range : Limited
Color primaries : BT.709
Transfer characteristics : BT.709
Matrix coefficients : BT.709
Audio #1
ID : 1
Format : MPEG Audio
Format version : Version 1
Format profile : Layer 3
Codec ID : A_MPEG/L3
Codec ID/Hint : MP3
Duration : 1 h 38 min
Bit rate mode : Constant
Bit rate : 192 kb/s
Channel(s) : 2 channels
Sampling rate : 48.0 kHz
Frame rate : 41.667 FPS (1152 SPF)
Compression mode : Lossy
Stream size : 135 MiB (1%)
Title : O'zbek Tilida Edit:[Vampire_1987] V-Tv
Writing library : LAME3.99.5
Language : Uzbek
Default : No
Forced : No
Audio #2
ID : 2
Format : AC-3
Format/Info : Audio Coding 3
Format settings, Endianness : Big
Codec ID : A_AC3
Duration : 1 h 38 min
Bit rate mode : Constant
Bit rate : 384 kb/s
Channel(s) : 6 channels
Channel positions : Front: L C R, Side: L R, LFE
Sampling rate : 48.0 kHz
Frame rate : 31.250 FPS (1536 SPF)
Bit depth : 16 bits
Compression mode : Lossy
Stream size : 270 MiB (1%)
Title : Rus [ i Tunes ]
Service kind : Complete Main
Default : No
Forced : No
Audio #3
ID : 4
Format : DTS
Format/Info : Digital Theater Systems
Format profile : MA / Core
Mode : 16
Format settings, Endianness : Big
Codec ID : A_DTS
Duration : 1 h 38 min
Bit rate mode : Variable / Constant
Bit rate : 3 682 kb/s / 768 kb/s
Channel(s) : 6 channels
Channel positions : Front: L C R, Side: L R, LFE
Sampling rate : 48.0 kHz
Frame rate : 93.750 FPS (512 SPF)
Bit depth : 24 bits
Compression mode : Lossless / Lossy
Stream size : 2.53 GiB (10%)
Default : Yes
Forced : No
Text
ID : 5
Format : PGS
Muxing mode : zlib
Codec ID : S_HDMV/PGS
Codec ID/Info : Picture based subtitle format used on BDs/HD-DVDs
Duration : 1 h 30 min
Bit rate : 12.2 kb/s
Count of elements : 2388
Stream size : 7.90 MiB (0%)
Language : English
Default : Yes
Forced : No
Menu
00:00:00.000 : en:00:00:00.000
00:07:36.583 : en:00:07:36.583
00:16:21.583 : en:00:16:21.583
00:23:34.417 : en:00:23:34.417
00:31:06.250 : en:00:31:06.250
00:38:49.125 : en:00:38:49.125
00:47:00.500 : en:00:47:00.500
00:53:55.333 : en:00:53:55.333
01:03:15.208 : en:01:03:15.208
01:09:50.250 : en:01:09:50.250
01:17:26.667 : en:01:17:26.667
01:24:01.542 : en:01:24:01.542
Profil ShX
Xabarlarni ko‘rsatish:    

Hozirgi vaqt: 17-Noy 17:36

Vaqtlar farqi: UTC + 5



Siz mavzu yaratishingiz mumkin emas
Siz xabarlarga javob qaytarishingiz mumkin emas
Siz o‘z xabarlaringizni tahrirlashingiz mumkin emas
Siz o‘z xabarlaringizni o‘chirishingiz mumkin emas
Siz so‘rovlarda ovoz berishingiz mumkin emas
Siz xabalarga fayllarni biriktirishingiz mumkin emas
Siz fayllarni ko‘chirishingiz mumkin emas