Tarqatmalar statistikasi
Yoʻq
 
     
 
 

Javohir123 ®

Jins:
Yigit
Staj:
9 oy 23 kun
Xabarlar:
47
Taqiq:

Maxviy Josus / Секретный агент / Unlocked- Davlat: Buyuk Britaniya
Janr: Jangari,Triller
Chiqqan yili: 2017
Davomiyligi: 01:38:06-Tarjima: Dublyaj (Professional) O'zbek tilida
Rejissiyor: Maykl Apted-Rollarda: Noomi Rapace, Orlando Bloom, Toni Collette, Maykl Duglas, Jon Malkovich, Akshay Kumar, Tosin Cole, Adelia, Adedayo, Brian Caspe, Dovud Hamdouchi-Описание: Она - секретный агент мирового уровня. На этот раз ее задача - предотвратить биологическую атаку на Лондон. Вовлеченная в большую шпионскую игру, она неизбежно сталкивается с миром двойных стандартов, паранойи, безнаказанности и предательства. Вокруг так много друзей, но кому из них на самом деле можно доверять? И кто из них тот неуловимый «крот», которого она должна вычислить, чтобы остановить террористов? Чтобы спасти Лондон, ей самой придется играть не по правилам...-Качество видео: WEB-DL
Формат видео: MKV-Video: MPEG4 Video (H264) 1912x792 23.976fps 4 455 Kbps
Audio: Dolby AC3 48000Hz 6ch 384kbps Rus
Audio: MP3 44100Hz stereo 128kbps Uzb

MediaInfo

General
Unique ID : 240398592892230080752691813951200335880 (0xB4DB15B9A528CD98B4EA96A7D9B49808)
Complete name :
Format : Matroska
Format version : Version 4 / Version 2
File size : 3.47 GiB
Duration : 1 h 38 min
Overall bit rate : 5 068 kb/s
Movie name : UNLOCKED_WEB_DL_1080p-BLUEBIRD
Encoded date : UTC 2017-08-20 20:08:20
Writing application : mkvmerge v9.2.0 ('Photograph') 64bit
Writing library : libebml v1.3.3 + libmatroska v1.4.4
Video
ID : 1
Format : AVC
Format/Info : Advanced Video Codec
Format profile : High@L4
Format settings, CABAC : Yes
Format settings, RefFrames : 5 frames
Codec ID : V_MPEG4/ISO/AVC
Duration : 1 h 38 min
Bit rate : 4 554 kb/s
Width : 1 912 pixels
Height : 792 pixels
Display aspect ratio : 2.40:1
Frame rate mode : Constant
Frame rate : 23.976 (24000/1001) FPS
Color space : YUV
Chroma subsampling : 4:2:0
Bit depth : 8 bits
Scan type : Progressive
Bits/(Pixel*Frame) : 0.125
Stream size : 3.12 GiB (90%)
Title : UNLOCKED_WEB_DL_1080p-BLUEBIRD
Language : English
Default : Yes
Forced : No
Color range : Limited
Color primaries : BT.709
Transfer characteristics : BT.709
Matrix coefficients : BT.709
Audio #1
ID : 2
Format : AC-3
Format/Info : Audio Coding 3
Format settings, Endianness : Big
Codec ID : A_AC3
Duration : 1 h 38 min
Bit rate mode : Constant
Bit rate : 384 kb/s
Channel(s) : 6 channels
Channel positions : Front: L C R, Side: L R, LFE
Sampling rate : 48.0 kHz
Frame rate : 31.250 FPS (1536 SPF)
Bit depth : 16 bits
Compression mode : Lossy
Stream size : 269 MiB (8%)
Title : [DUB] DD 5.1 @ 384 kbps (iTunes)
Language : Russian
Service kind : Complete Main
Default : Yes
Forced : No
Audio #2
ID : 3
Format : MPEG Audio
Format version : Version 1
Format profile : Layer 3
Mode : Joint stereo
Mode extension : MS Stereo
Codec ID : A_MPEG/L3
Codec ID/Hint : MP3
Duration : 1 h 38 min
Bit rate mode : Constant
Bit rate : 128 kb/s
Channel(s) : 2 channels
Sampling rate : 44.1 kHz
Frame rate : 38.281 FPS (1152 SPF)
Compression mode : Lossy
Stream size : 89.8 MiB (3%)
Title : Fe@rLeSs
Writing library : LAME3.98.2
Language : Uzbek
Default : No
Forced : No
Menu
00:00:00.000 : en:1
00:01:02.000 : en:2
00:14:16.000 : en:3
00:26:49.000 : en:4
00:39:05.000 : en:5
00:51:47.000 : en:6
01:03:51.000 : en:7
01:15:05.000 : en:8
01:32:02.000 : en:9


So‘ngi marta tahrirlandi: Javohir123 (2017-11-10 18:34), Jami tahrirlangan 4 marta
Profil ShX

Vampire_1987

Jins:
Ko‘rsatilmagan
Staj:
10 oy 28 kun
Xabarlar:
98
Taqiq:

482Перевод: Профессиональный (дублированный) (iTunes) O'zbek tilida
Качество видео: WEB-DL
Формат видео: MKV
Ozbek tilida Yozing ...Video: MPEG4 Video (H264) 1912x792 23.976fps Bit Rateni Kiritib Qoying
Shapkaga Rejisyor Nomini Kiritib Qoying ...

Mavzu yaratish 17-Okt-2017 17:36 (21 daqiqa o‘tgach)

Iqitibos

Profil ShX

Nitron

Jins:
Ko‘rsatilmagan
Staj:
9 oy 21 kun
Xabarlar:
1
Taqiq:

Torrent fayl qani?

Mavzu yaratish 21-Okt-2017 18:29 (4 kun o‘tgach)

Iqitibos

Profil ShX

BestBoy

Jins:
Yigit
Staj:
9 oy 17 kun
Xabarlar:
62
Taqiq:

asta asta gullayapti tez orada men ham yordam beraman razdachaga

Mavzu yaratish 21-Okt-2017 21:52 (3 soat o‘tgach)

Iqitibos

Profil ShX
Xabarlarni ko‘rsatish:    

Hozirgi vaqt: 22-Iyul 19:33

Vaqtlar farqi: UTC + 5



Siz mavzu yaratishingiz mumkin emas
Siz xabarlarga javob qaytarishingiz mumkin emas
Siz o‘z xabarlaringizni tahrirlashingiz mumkin emas
Siz o‘z xabarlaringizni o‘chirishingiz mumkin emas
Siz so‘rovlarda ovoz berishingiz mumkin emas
Siz xabalarga fayllarni biriktirishingiz mumkin emas
Siz fayllarni ko‘chirishingiz mumkin emas