˂
˃
Tarqatmalar statistikasi
Ko‘chirmoqdaman: [ 5 ]
 
     
 
 

N.U.R.I.K.B.E.K ®

Jins:
Yigit
Staj:
1 yil 1 oy
Xabarlar:
339

Qayerdan: Jizzax. Paxtakor

Taqiq:

Meg: Tubsizlik Mahluqi | Мег: Монстр глубины | The Meg
--Chiqqan yili: 2018
Davlat: AQSH, Xitoy.
Janr: Daxshat, Fantastik, Jangari, Treller.
Davomiyligi: 01:53:11
Tarjima: Professional
Tarjima #1: Professional (My5TV) O'zbek Tilida
Tarjima #2: Professional (Kinoteatr) O'zbek Tilida
Tarjima #3: Professional (litsenziya) Rus Tilida
Tarjima #4: Professional (litsenziya) Eng Tilida
Tarjima #5: Professional (litsenziya) Ukr Tilida--Rejissyor: jon Tyortltub--Rollarda: Jeyson Steytem, Li Binbin, Reyn Uilson, Kliff Kyortis, Uinston Chao, Shuya Sofia Say, Rubi Rouz, Peydj Kennedi, Robert Taylor, Oulavyur Darri Oulafsson.-Tavsif: Suv osti hayotini o'rganish bo'yicha xalqaro dastur doirasida chuqur suv havzasi kuzatilganda , har bir inson uzoq vaqt yo'qolgan deb hisoblangan tarixiy 23 metrli megalodon. ulkan mavjudot hujum qildi. Xatto qurilmalar endi Tinch okeanidagi eng chuqur tubsizlik tubida yotardi ... tuzoqqa tushgan ekipaj bilan. Ularning vaqti ham tugab borardi. Xitoyning oceanografer-innovatorining qizi Suining noroziliklariga qaramay, qutqaruvchi Jonas Teylorni chaqiradi, dengiz suv osti kemasi bilan jamoani okeanni ko'rinmaydigan tubidan qutqarish uchun tushiradi--Videoning sifati: WEB-DL 1080p
Video format: MKV--Video: MPEG4 Video (H264) 1920x798 23.976fps
Audio: MP3 48000Hz stereo 192kbps O'zbek Tili (My5TV)
Audio: MP3 48000Hz stereo 192kbps O'zbek Tili (Kinoteatr)
Audio: Dolby AC3 48000Hz 6ch 384kbps Rus Tili
Audio: Dolby AC3 48000Hz 6ch 384kbps Eng Tili
Audio: AAC 44100Hz stereo Ukr Tili --

Media Info

General
Format : Matroska
Format version : Version 4 / Version 2
File size : 4.60 GiB
Duration : 1h 53mn
Overall bit rate : 5 815 Kbps
Video
ID : 1
Format : AVC
Format/Info : Advanced Video Codec
Format profile : High@L4
Format settings, CABAC : Yes
Format settings, ReFrames : 5 frames
Codec ID : V_MPEG4/ISO/AVC
Duration : 1h 53mn
Width : 1 920 pixels
Height : 798 pixels
Display aspect ratio : 2.40:1
Frame rate mode : Constant
Frame rate : 23.976 fps
Color space : YUV
Chroma subsampling : 4:2:0
Bit depth : 8 bits
Scan type : Progressive
Title : The_MEG_2018_WEB_DL_1080p-BLUEBIRD
Language : English
Default : Yes
Forced : No
Color range : Limited
Color primaries : BT.709
Transfer characteristics : BT.709
Matrix coefficients : BT.709
Audio #1
ID : 2
Format : MPEG Audio
Format version : Version 1
Format profile : Layer 3
Mode : Joint stereo
Mode extension : MS Stereo
Codec ID : A_MPEG/L3
Codec ID/Hint : MP3
Duration : 1h 53mn
Bit rate mode : Constant
Bit rate : 192 Kbps
Channel(s) : 2 channels
Sampling rate : 48.0 KHz
Compression mode : Lossy
Stream size : 155 MiB (3%)
Title : O'zbek Tili (My5Tv)
Language : Uzbek
Default : Yes
Forced : No
Audio #2
ID : 3
Format : MPEG Audio
Format version : Version 1
Format profile : Layer 3
Mode : Joint stereo
Mode extension : MS Stereo
Codec ID : A_MPEG/L3
Codec ID/Hint : MP3
Duration : 1h 53mn
Bit rate mode : Constant
Bit rate : 192 Kbps
Channel(s) : 2 channels
Sampling rate : 48.0 KHz
Compression mode : Lossy
Stream size : 155 MiB (3%)
Title : O'zbek Tili (Kinoteatr)
Language : Uzbek
Default : No
Forced : No
Audio #3
ID : 4
Format : AC-3
Format/Info : Audio Coding 3
Mode extension : CM (complete main)
Format settings, Endianness : Big
Codec ID : A_AC3
Duration : 1h 53mn
Bit rate mode : Constant
Bit rate : 384 Kbps
Channel(s) : 6 channels
Channel positions : Front: L C R, Side: L R, LFE
Sampling rate : 48.0 KHz
Compression mode : Lossy
Stream size : 311 MiB (7%)
Title : Rus Tili
Language : Russian
Default : No
Forced : No
Audio #4
ID : 5
Format : AC-3
Format/Info : Audio Coding 3
Mode extension : CM (complete main)
Format settings, Endianness : Big
Codec ID : A_AC3
Duration : 1h 53mn
Bit rate mode : Constant
Bit rate : 384 Kbps
Channel(s) : 6 channels
Channel positions : Front: L C R, Side: L R, LFE
Sampling rate : 48.0 KHz
Compression mode : Lossy
Stream size : 311 MiB (7%)
Title : Eng Tili
Language : English
Default : No
Forced : No
Audio #5
ID : 6
Format : AAC
Format/Info : Advanced Audio Codec
Format profile : LC
Codec ID : A_AAC
Duration : 1h 53mn
Channel(s) : 2 channels
Channel positions : Front: L R
Sampling rate : 44.1 KHz
Compression mode : Lossy
Title : Ukr Tili
Language : Ukrainian
Default : No
Forced : No
LAVHALAR


So‘ngi marta tahrirlandi: N.U.R.I.K.B.E.K (2018-11-05 18:09), Jami tahrirlangan 3 marta
Profil ShX

MRLG

Jins:
Yigit
Staj:
1 yil 3 oy
Xabarlar:
526
Taqiq:

N.U.R.I.K.B.E.K, Reliz uchun rahmat. Rasmiylashtirishda doimgidek ba'zi kamchiliklarga yo'l qo'ygansiz.
1. Janr: Ujas bu janrni ruscha nomi. O'zbekchada Daxshat yoki Qo'rqinch deb yozishni maslahat beraman.
2. Rejissyor: Djon Tyortltub - DJ emas. J harfi bilan yozing. Aktyorlarda ham shu xato takrorlangan.
3. Videoning sifati: WEB-DLRip 1080p - bunda ham Rip so'zi ortiqcha. WEB-DLRip 1080p degan sifat mavjud emas. qachonki WEB-DL 1080pni 720x304 o'lchamda konvert qilsangiz ana shunda konvert qilgan faylingiz WEB-DLRip maqomini oladi. Buni unutmang. Qayerda WEB-DLRip 1080p deb yozilgan bo'lsa uni WEB-DL 1080p ga o'zgartirib chiqing.

Mavzu yaratish 05-Noy-2018 10:51 (5 soat o‘tgach)

Iqitibos

Profil ShX
Xabarlarni ko‘rsatish:    

Hozirgi vaqt: 11-Dek 02:59

Vaqtlar farqi: UTC + 5



Siz mavzu yaratishingiz mumkin emas
Siz xabarlarga javob qaytarishingiz mumkin emas
Siz o‘z xabarlaringizni tahrirlashingiz mumkin emas
Siz o‘z xabarlaringizni o‘chirishingiz mumkin emas
Siz so‘rovlarda ovoz berishingiz mumkin emas
Siz xabalarga fayllarni biriktirishingiz mumkin emas
Siz fayllarni ko‘chirishingiz mumkin emas