˂
˃
Tarqatmalar statistikasi
Ko‘chirmoqdaman: [ 3 ]
Ko‘chirib bo‘ldim: [ 10 ]
 
     
 
 

N.U.R.I.K.B.E.K ®

Jins:
Yigit
Staj:
1 yil 1 oy
Xabarlar:
344

Qayerdan: Jizzax. Paxtakor

Taqiq:

--Meg: Tubsizlik Mahluqi | Мег: Монстр глубины | The Meg-- --Chiqqan yili: 2018
Davlat: AQSH, Xitoy.
Janr: Daxshat, Fantastik, Jangari, Treller.
Davomiyligi: 01:53:11
Tarjima: Professional
Tarjima #1: Professional (My5TV) O'zbek Tilida
Tarjima #2: Professional (Kinoteatr) O'zbek Tilida
Tarjima #3: Professional (litsenziya) Rus Tilida--Rejissyor: jon Tyortltub--Rollarda: Jeyson Steytem, Li Binbin, Reyn Uilson, Kliff Kyortis, Uinston Chao, Shuya Sofia Say, Rubi Rouz, Peydj Kennedi, Robert Taylor, Oulavyur Darri Oulafsson.-Tavsif: Suv osti hayotini o'rganish bo'yicha xalqaro dastur doirasida chuqur suv havzasi kuzatilganda , har bir inson uzoq vaqt yo'qolgan deb hisoblangan tarixiy 23 metrli megalodon. ulkan mavjudot hujum qildi. Xatto qurilmalar endi Tinch okeanidagi eng chuqur tubsizlik tubida yotardi ... tuzoqqa tushgan ekipaj bilan. Ularning vaqti ham tugab borardi. Xitoyning oceanografer-innovatorining qizi Suining noroziliklariga qaramay, qutqaruvchi Jonas Teylorni chaqiradi, dengiz suv osti kemasi bilan jamoani okeanni ko'rinmaydigan tubidan qutqarish uchun tushiradi--Videoning sifati: WEB-DLRip
Video format: MKV--Video: MPEG4 Video (H264) 960x400 23.976fps
Audio: MP3 48000Hz stereo 192kbps uzb
Audio: MP3 48000Hz stereo 192kbps uzb
Audio: Audio: Dolby AC3 48000Hz 6ch 384kbps rus-
-

Media Info

General
Format : MPEG-4
Format profile : Base Media
Codec ID : isom
File size : 1.85 GiB
Duration : 1h 53mn
Overall bit rate : 2 338 Kbps
Video
ID : 1
Format : AVC
Format/Info : Advanced Video Codec
Format profile : Main@L3
Format settings, CABAC : Yes
Format settings, ReFrames : 1 frame
Format settings, GOP : M=1, N=25
Codec ID : avc1
Codec ID/Info : Advanced Video Coding
Duration : 1h 53mn
Bit rate : 1 565 Kbps
Width : 960 pixels
Height : 400 pixels
Display aspect ratio : 2.40:1
Frame rate mode : Constant
Frame rate : 23.976 fps
Color space : YUV
Chroma subsampling : 4:2:0
Bit depth : 8 bits
Scan type : Progressive
Bits/(Pixel*Frame) : 0.170
Audio #1
ID : 2
Format : MPEG Audio
Format version : Version 1
Format profile : Layer 3
Mode : Joint stereo
Mode extension : MS Stereo
Codec ID : 6B
Duration : 1h 53mn
Duration_LastFrame : -1ms
Bit rate mode : Constant
Bit rate : 192 Kbps
Channel(s) : 2 channels
Sampling rate : 48.0 KHz
Compression mode : Lossy
Stream size : 155 MiB (8%)
Title : O'zbek Tili (My5Tv)
Language : Uzbek
Encoded date : UTC 2018-11-04 23:10:15
Tagged date : UTC 2018-11-04 23:10:15
Audio #2
ID : 3
Format : MPEG Audio
Format version : Version 1
Format profile : Layer 3
Mode : Joint stereo
Mode extension : MS Stereo
Codec ID : 6B
Duration : 1h 53mn
Duration_LastFrame : -1ms
Bit rate mode : Constant
Bit rate : 192 Kbps
Channel(s) : 2 channels
Sampling rate : 48.0 KHz
Compression mode : Lossy
Stream size : 155 MiB (8%)
Title : O'zbek Tili (Kinoteatr)
Language : Uzbek
Encoded date : UTC 2018-11-04 23:10:15
Tagged date : UTC 2018-11-04 23:10:15
Audio #3
ID : 4
Format : AC-3
Format/Info : Audio Coding 3
Mode extension : CM (complete main)
Format settings, Endianness : Big
Codec ID : ac-3
Duration : 1h 53mn
Bit rate mode : Constant
Bit rate : 384 Kbps
Channel(s) : 6 channels
Channel positions : Front: L C R, Side: L R, LFE
Sampling rate : 48.0 KHz
Bit depth : 16 bits
Compression mode : Lossy
Stream size : 311 MiB (16%)
Title : Rus Tili
Language : Russian
Encoded date : UTC 2018-11-04 23:10:15
Tagged date : UTC 2018-11-04 23:10:15
LAVHALAR
Profil ShX

Topik 2018 yil kinofilmlari (Premyeralar) forumidan Vaqtincha tarqatmalar ga ko‘chirildi
MRLG

Mavzu yaratish 06-Noy-2018 13:13 (19 soat o‘tgach)

Xabarlarni ko‘rsatish:    

Hozirgi vaqt: 17-Dek 09:30

Vaqtlar farqi: UTC + 5



Siz mavzu yaratishingiz mumkin emas
Siz xabarlarga javob qaytarishingiz mumkin emas
Siz o‘z xabarlaringizni tahrirlashingiz mumkin emas
Siz o‘z xabarlaringizni o‘chirishingiz mumkin emas
Siz so‘rovlarda ovoz berishingiz mumkin emas
Siz xabalarga fayllarni biriktirishingiz mumkin emas
Siz fayllarni ko‘chirishingiz mumkin emas