˂
˃
Tarqatmalar statistikasi
Yoʻq
 
     
 
 

Javohir123 ®

Jins:
Yigit
Staj:
1 yil 1 oy
Xabarlar:
48
Taqiq:

Mexanik 2 / Механик: Воскрешение | Mechanic: Resurrectio- Davlat: AQSHJanr: Jangari,Triller,KriminalChiqqan yili: 2016Davomiyligi: 01:38:12-Перевод: Dublyaj (Professional) O'zbek tilida
Rejissiyor: Dennis Hansel
-Rollarda: Jason Statham, Jessica Alba, Tommy Li Jones, Mishel Yeo, Natalia Guslistaya, Ratha Phongam Respublikasi Qarab, Sam Hazeldine, Yuhanno Cenatiempo, Raicho Vassilev, Aaron Brumfield-Описание: Артура Бишопа, давно оставившего свое криминальное ремесло, вынуждают снова вступить в игру. Чтобы похитители вернули его возлюбленную, он должен сделать то, что у него получается лучше всего: от него требуется совершить три убийства, идеально обставленных как несчастные случаи.-Качество видео: WEBRip
Формат видео: MKV
Video: MPEG4 Video (H264) 1912x800 24fps 4 550 kb/s
Audio: Dolby AC3 48000Hz 6ch Rus
Audio: MP3 44100Hz stereo 320kbps Uzb

MediaInfo

General
Unique ID : 213065782512974041898274838392588942222 (0xA04AFA2109740A4B8D608445BB4F3B8E)
Complete name :
Format : Matroska
Format version : Version 4 / Version 2
File size : 3.61 GiB
Duration : 1 h 38 min
Overall bit rate : 5 256 kb/s
Movie name : MexaniK 2
Encoded date : UTC 2017-07-05 14:03:38
Writing application : mkvmerge v9.2.0 ('Photograph') 32bit
Writing library : libebml v1.3.3 + libmatroska v1.4.4
Video
ID : 1
Format : AVC
Format/Info : Advanced Video Codec
Format profile : High@L4
Format settings, CABAC : Yes
Format settings, RefFrames : 5 frames
Codec ID : V_MPEG4/ISO/AVC
Duration : 1 h 38 min
Bit rate : 4 550 kb/s
Width : 1 912 pixels
Height : 800 pixels
Display aspect ratio : 2.40:1
Frame rate mode : Constant
Frame rate : 24.000 FPS
Color space : YUV
Chroma subsampling : 4:2:0
Bit depth : 8 bits
Scan type : Progressive
Bits/(Pixel*Frame) : 0.124
Stream size : 3.12 GiB (87%)
Language : English
Default : Yes
Forced : No
Color range : Limited
Color primaries : BT.709
Transfer characteristics : BT.709
Matrix coefficients : BT.709
Audio #1
ID : 2
Format : AC-3
Format/Info : Audio Coding 3
Format settings, Endianness : Big
Codec ID : A_AC3
Duration : 1 h 38 min
Bit rate mode : Constant
Bit rate : 384 kb/s
Channel(s) : 6 channels
Channel positions : Front: L C R, Side: L R, LFE
Sampling rate : 48.0 kHz
Frame rate : 31.250 FPS (1536 SPF)
Bit depth : 16 bits
Compression mode : Lossy
Stream size : 270 MiB (7%)
Language : Russian
Service kind : Complete Main
Default : Yes
Forced : No
Audio #2
ID : 3
Format : MPEG Audio
Format version : Version 1
Format profile : Layer 3
Mode : Joint stereo
Codec ID : A_MPEG/L3
Codec ID/Hint : MP3
Duration : 1 h 38 min
Bit rate mode : Constant
Bit rate : 320 kb/s
Channel(s) : 2 channels
Sampling rate : 44.1 kHz
Frame rate : 38.281 FPS (1152 SPF)
Compression mode : Lossy
Stream size : 225 MiB (6%)
Writing library : LAME3.99.5
Default : No
Forced : No


So‘ngi marta tahrirlandi: Javohir123 (2017-10-23 17:43), Jami tahrirlangan 5 marta
Profil ShX

Vampire_1987

Jins:
Ko‘rsatilmagan
Staj:
1 yil 2 oy
Xabarlar:
115
Taqiq:

Javohir123, Posterni Ozgartiring Soya Tashamang Poster Orqasiga ... etibor bergan bolsangiz Lentada Hunik Korinmoqda ) Качество видео: HDRip WEBRip Boladi Hamda Описание: Shundan Boshqa Barcha Yozuvlarni Ozbek Tilida Yozing .... Hozircha Saytimiz Yosh bolgani Sababli Tarjimonlarimiz Yoq ... Bu Yer Bilan Tanishib Chiqing http://uztracker.me/viewtopic.php?t=115

Mavzu yaratish 16-Okt-2017 21:19 (1 soat 37 daqiqa o‘tgach)

Iqitibos

Profil ShX

Vampire_1987

Jins:
Ko‘rsatilmagan
Staj:
1 yil 2 oy
Xabarlar:
115
Taqiq:

453Mexanik 2 / Mexanik 2 (Dennis Hansel) [2016, AQSH, Jangari,Triller,Kriminal, HDRip WEBRip] ¶
453Video: MPEG4 Video (H264) 1912x800
bu Yerga FPS ni va Bit Rate ni Kiritib Qoying

Mavzu yaratish 17-Okt-2017 10:23 (13 soat o‘tgach)

Iqitibos

Profil ShX
Xabarlarni ko‘rsatish:    

Hozirgi vaqt: 18-Noy 16:47

Vaqtlar farqi: UTC + 5



Siz mavzu yaratishingiz mumkin emas
Siz xabarlarga javob qaytarishingiz mumkin emas
Siz o‘z xabarlaringizni tahrirlashingiz mumkin emas
Siz o‘z xabarlaringizni o‘chirishingiz mumkin emas
Siz so‘rovlarda ovoz berishingiz mumkin emas
Siz xabalarga fayllarni biriktirishingiz mumkin emas
Siz fayllarni ko‘chirishingiz mumkin emas