Tarqatmalar statistikasi
Yoʻq
 
     
 
 

Frozen ®

Jins:
Yigit
Staj:
1 yil 1 oy
Xabarlar:
58

Qayerdan: Toshkent, Navoi

Taqiq:

-Million Jamoasi konsert dasturi- FILM HAQIDA MA`LUMOT
Chiqqan yili: 2017
Davlat: O`zbekiston
Janri: Komediya
Davomiyligi: 02:00:02--Sifat: AVC
Format: MP4
Video: Mpeg / 720x480 / 205kbps
Аудио: AAC / 95kbps / O`zbek tilida-

Malumot

General
    Format : MPEG-4
    Format profile : Base Media
    Codec ID : isom
    File size : 752 MiB
    Duration : 2h 0mn
    Overall bit rate : 870 Kbps
    Writing application : Lavf54.6.101
  Video #1
    ID : 1
    Format : AVC
    Format/Info : Advanced Video Codec
    Format profile : Baseline@L3.0
    Format settings, CABAC : No
    Format settings, ReFrames : 1 frame
    Codec ID : avc1
    Codec ID/Info : Advanced Video Coding
    Duration : 2h 0mn
    Bit rate : 768 Kbps
    Width : 720 pixels
    Height : 480 pixels
    Display aspect ratio : 16:9
    Original display aspect ratio : 16:9
    Frame rate mode : Constant
    Frame rate : 25.000 fps
    Standard : NTSC
    Color space : YUV
    Chroma subsampling : 4:2:0
    Bit depth : 8 bits
    Scan type : Progressive
    Bits/(Pixel*Frame) : 0.089
    Stream size : 665 MiB (88%)
    Writing library : x264 core 120
    Encoding settings : cabac=0 / ref=1 / deblock=1:0:0 / analyse=0x1:0x111 / me=hex / subme=2 / psy=1 / psy_rd=1.00:0.00 / mixed_ref=0 / me_range=16 / chroma_me=1 / trellis=0 / 8x8dct=0 / cqm=0 / deadzone=21,11 / fast_pskip=1 / chroma_qp_offset=0 / threads=6 / sliced_threads=0 / nr=0 / decimate=1 / interlaced=0 / bluray_compat=0 / constrained_intra=0 / bframes=0 / weightp=0 / keyint=250 / keyint_min=25 / scenecut=40 / intra_refresh=0 / rc_lookahead=10 / rc=abr / mbtree=1 / bitrate=768 / ratetol=1.0 / qcomp=0.60 / qpmin=0 / qpmax=69 / qpstep=4 / ip_ratio=1.40 / aq=1:1.00
  Audio #2
    ID : 2
    Format : AAC
    Format/Info : Advanced Audio Codec
    Format profile : LC
    Codec ID : 40
    Duration : 2h 0mn
    Bit rate mode : Constant
    Bit rate : 96.0 Kbps
    Channel(s) : 2 channels
    Channel positions : Front: L R
    Sampling rate : 44.1 KHz
    Compression mode : Lossy
    Stream size : 83.0 MiB (11%)
SKRINSHOTLAR
Profil ShX

Deejay

Jins:
Yigit
Staj:
1 yil 1 oy
Xabarlar:
22

Qayerdan: Daejeon#

Taqiq:

Peers da ko'rinmayapsiz

Mavzu yaratish 23-Avg-2017 12:48 (33 daqiqa o‘tgach)

Iqitibos

Profil ShX

MRLG

Jins:
Yigit
Staj:
1 yil 1 oy
Xabarlar:
461
Taqiq:

Kim bu relizga √ проверено maqomini berdi ? Relizni texnik ma`lumotlari to`g`ri kelmaydiki.

Mavzu yaratish 23-Avg-2017 12:52 (3 daqiqa o‘tgach)

Iqitibos

Profil ShX

Deejay

Jins:
Yigit
Staj:
1 yil 1 oy
Xabarlar:
22

Qayerdan: Daejeon#

Taqiq:

MRLG, nmasi xato?

Mavzu yaratish 23-Avg-2017 13:01 (9 daqiqa o‘tgach)

Iqitibos

Profil ShX

Deejay

Jins:
Yigit
Staj:
1 yil 1 oy
Xabarlar:
22

Qayerdan: Daejeon#

Taqiq:

Bu boshqa saytlardaham chiqdimi?

Mavzu yaratish 23-Avg-2017 13:02 (28 soniya o‘tgach)

Iqitibos

Profil ShX

_-KIRA-_

Jins:
Ko‘rsatilmagan
Staj:
1 yil 1 oy
Xabarlar:
3
Taqiq:

Video va Audio malumotlari xato

Mavzu yaratish 23-Avg-2017 13:06 (3 daqiqa o‘tgach)

Iqitibos

Profil ShX

MRLG

Jins:
Yigit
Staj:
1 yil 1 oy
Xabarlar:
461
Taqiq:

48MRLG, nmasi xato?
Relizda korsatilgan.
Video: Xvid / 720x304 / 23.976fps / 1370kbps
Аудио: MP3 / 48000Hz / 2ch / 128kbps /
Media infoda esa boshqacha malumot.

Mavzu yaratish 23-Avg-2017 13:06 (13 soniya o‘tgach)

Iqitibos

Profil ShX
Xabarlarni ko‘rsatish:    

Hozirgi vaqt: 19-Sen 11:37

Vaqtlar farqi: UTC + 5



Siz mavzu yaratishingiz mumkin emas
Siz xabarlarga javob qaytarishingiz mumkin emas
Siz o‘z xabarlaringizni tahrirlashingiz mumkin emas
Siz o‘z xabarlaringizni o‘chirishingiz mumkin emas
Siz so‘rovlarda ovoz berishingiz mumkin emas
Siz xabalarga fayllarni biriktirishingiz mumkin emas
Siz fayllarni ko‘chirishingiz mumkin emas