MRLG ®

Jins:
Yigit
Staj:
1 yil 1 oy
Xabarlar:
465
Taqiq:

-M I L L I O N- FILM HAQIDA MA'LUMOT
Chiqqan yili: 2017
Davlat: O`zbekison
Janri: Komediya
Davomiyligi: 02:07:47
Tarjima: Tarjima shart emas-Rejissiyor: Davron Kabulov
Rollarda
Davron Kabulov, Umidjon Khaydarov, Umid Umarov, Mirkomil Musayev, Ahmad Temurov, Otabek Mirzokholov, Alisher Botirov va Shahlo-Tavsif
Million jamoasining navbatdagi orziqib kutgan konsert dasturi. Bu dasturda O`zbek futbolidan to 90-yillardagi o`zbek tuylarida bo`lgan qiziq voqealar mohirlik bilan ko`rsatib berilgan. Million jamoasining dasturini tomosha qilib mazza qilib hordiq oling.-Qo'shimcha ma'lumotlar-Sifat: HDRip
Format: AVI
Video: | Xvid | 640x360 | 25fps | 1545kbps |
Audio #1: | MP3 | 44100Hz stereo | 128kbps |-

MI

General
Complete name                  : D:\Кино\QIZIQCHI 2013\Million.2017.HDRip.avi
Format                         : AVI
Format/Info                    : Audio Video Interleave
File size                      : 1.50 GiB
Duration                       : 2 h 7 min
Overall bit rate               : 1 684 kb/s
Writing application            : VirtualDubMod 1.5.10.3 | www.virtualdub-fr.org || (build 2550/release)
Writing library                : VirtualDubMod build 2550/release
Video
ID                             : 0
Format                         : MPEG-4 Visual
Format profile                 : Advanced Simple@L5
Format settings, BVOP          : 2
Format settings, QPel          : No
Format settings, GMC           : No warppoints
Format settings, Matrix        : Default (MPEG)
Codec ID                       : XVID
Codec ID/Hint                  : XviD
Duration                       : 2 h 7 min
Bit rate                       : 1 546 kb/s
Width                          : 640 pixels
Height                         : 360 pixels
Display aspect ratio           : 16:9
Frame rate                     : 25.000 FPS
Color space                    : YUV
Chroma subsampling             : 4:2:0
Bit depth                      : 8 bits
Scan type                      : Progressive
Compression mode               : Lossy
Bits/(Pixel*Frame)             : 0.268
Stream size                    : 1.38 GiB (92%)
Writing library                : XviD 73
Audio
ID                             : 1
Format                         : MPEG Audio
Format version                 : Version 1
Format profile                 : Layer 3
Codec ID                       : 55
Codec ID/Hint                  : MP3
Duration                       : 2 h 7 min
Bit rate mode                  : Constant
Bit rate                       : 128 kb/s
Channel(s)                     : 2 channels
Sampling rate                  : 44.1 kHz
Compression mode               : Lossy
Stream size                    : 117 MiB (8%)
Alignment                      : Split accross interleaves
Interleave, duration           : 40  ms (1.00 video frame)
Interleave, preload duration   : 500  ms
Writing library                : LAME3.99r
Encoding settings              : -m s -V 4 -q 0 -lowpass 17 -b 128

Miniatyura

SKRINSHOTLAR
Profil ShX

Jamik

Jins:
Ko‘rsatilmagan
Staj:
1 yil
Xabarlar:
14
Taqiq:

Sidda turing

Mavzu yaratish 24-Avg-2017 14:12 (15 soat o‘tgach)

Iqitibos

Profil ShX

MRLG ®

Jins:
Yigit
Staj:
1 yil 1 oy
Xabarlar:
465
Taqiq:

Jamik, uzr oka, bugun uyimizda tuy bo`lyapti, shu sabab sidda tura olmadim. bugun ohirigacha kochirib olasiz.

Mavzu yaratish 24-Avg-2017 18:09 (3 soat o‘tgach)

Iqitibos

Profil ShX
Xabarlarni ko‘rsatish:    

Hozirgi vaqt: 21-Sen 04:54

Vaqtlar farqi: UTC + 5



Siz mavzu yaratishingiz mumkin emas
Siz xabarlarga javob qaytarishingiz mumkin emas
Siz o‘z xabarlaringizni tahrirlashingiz mumkin emas
Siz o‘z xabarlaringizni o‘chirishingiz mumkin emas
Siz so‘rovlarda ovoz berishingiz mumkin emas
Siz xabalarga fayllarni biriktirishingiz mumkin emas
Siz fayllarni ko‘chirishingiz mumkin emas