˂
˃
Tarqatmalar statistikasi
Ko‘chirmoqdaman: [ 5 ]
Ko‘chirib bo‘ldim: [ 43 ]
 
     
 
 

azizbek ®

Jins:
Yigit
Staj:
1 yil
Xabarlar:
139

Qayerdan: Surxondaryo

Taqiq:

-Ming sayyora shaxri
Валериан и город тысячи планет
Valerian and the City of a Thousand Planets
- «From the visionary director of The Fifth Element and Lucy» -
Chiqqan yili: 2017
Davlat: Frantsiya, Xitoy, Belgiya, Germaniya, Birlashgan Arab Amirliklari, AQSh
Janr: fantastika, fentezi, jangari, sarguzasht
Davomiyligi: 02:17:01
Tarjima: Professional (Kinoteatr telekanali) o'zbek tilida-Rejissyor: Luk Besson
Rollarda: Dane Dehaan, Kara Delevingne, Klave Ouen, Riyanna, Ethan Hauk, Herbie hankok, kris U, Sem Spruell, Alain Shaba, Rutger Hauer-Tavsif:2700 yil. Valerian va Lorelin - kosmik maxsus agentlar vazifasini bajarib, shubhali ish uchun yollanadi va galaktikaaro fitnaning ishtirokchilariga aylandi. Alfa sayyorasiga galaktikaning uzoq burchaklaridan, har xil dunyolardan yig'ilganlar, g'aroyib kelgindi mavjudodlar hiylasiga uchraydi.
Byudjet: $177 200 000
Daromad: $225 874 228
Dunyo premyerasi: 2017 yil 17 iyul
Yosh chegarasi: 12+-Videoning sifati: BDRip
Video format: AVI-Video: XVID, 720x302, 23.976fps, 1466 kb/s
Audio #1: MP3, 48000Hz, stereo, 128 kb/s, Kinoteatr telekanali, o'zbek tilida

Media Info

General
Complete name : D:\MEDIA\kino\uztacker\Ming.sayyora.shaxri.BDRip.XVID.avi
Format : AVI
Format/Info : Audio Video Interleave
Format profile : OpenDML
File size : 1.54 GiB
Duration : 2 h 18 min
Overall bit rate : 1 598 kb/s
Writing application : Lavf57.81.100
Video
ID : 0
Format : MPEG-4 Visual
Format profile : Advanced Simple@L5
Format settings, BVOP : No
Format settings, QPel : No
Format settings, GMC : No warppoints
Format settings, Matrix : Default (H.263)
Codec ID : XVID
Codec ID/Hint : XviD
Duration : 2 h 17 min
Bit rate : 1 466 kb/s
Width : 720 pixels
Height : 302 pixels
Display aspect ratio : 2.40:1
Original display aspect ratio : 2.40:1
Frame rate : 23.976 (24000/1001) FPS
Color space : YUV
Chroma subsampling : 4:2:0
Bit depth : 8 bits
Scan type : Progressive
Compression mode : Lossy
Bits/(Pixel*Frame) : 0.281
Stream size : 1.40 GiB (91%)
Writing library : XviD 67
Audio
ID : 1
Format : MPEG Audio
Format version : Version 1
Format profile : Layer 3
Format settings : Joint stereo
Codec ID : 55
Codec ID/Hint : MP3
Duration : 2 h 18 min
Bit rate mode : Constant
Bit rate : 128 kb/s
Channel(s) : 2 channels
Sampling rate : 48.0 kHz
Compression mode : Lossy
Stream size : 126 MiB (8%)
Alignment : Aligned on interleaves
Interleave, duration : 24 ms (0.57 video frame)

Treyler - rus tilida(mover.uz)

Tarqatma tayyorlandi: RG Kinofilm guruhi nomidan

Profil ShX

Anvar26

Jins:
Yigit
Staj:
1 oy 12 kun
Xabarlar:
2
Taqiq:

Ajoyib

Mavzu yaratish 16-Okt-2018 00:24 (23 soat o‘tgach)

Iqitibos

Profil ShX

CIIIA

Jins:
Ko‘rsatilmagan
Staj:
9 oy 24 kun
Xabarlar:
1
Taqiq:

qoyil e , qande bunaqa kino oliwarkan

Mavzu yaratish 21-Okt-2018 21:11 (5 kun o‘tgach)

Iqitibos

Profil ShX
Xabarlarni ko‘rsatish:    

Hozirgi vaqt: 19-Noy 04:39

Vaqtlar farqi: UTC + 5



Siz mavzu yaratishingiz mumkin emas
Siz xabarlarga javob qaytarishingiz mumkin emas
Siz o‘z xabarlaringizni tahrirlashingiz mumkin emas
Siz o‘z xabarlaringizni o‘chirishingiz mumkin emas
Siz so‘rovlarda ovoz berishingiz mumkin emas
Siz xabalarga fayllarni biriktirishingiz mumkin emas
Siz fayllarni ko‘chirishingiz mumkin emas