˂
˃
Tarqatmalar statistikasi
Ko‘chiraman: [ 1 ]
Ko‘chirmoqdaman: [ 4 ]
Ko‘chirib bo‘ldim: [ 17 ]
 
     
 
 

azizbek ®

Jins:
Yigit
Staj:
1 yil
Xabarlar:
139

Qayerdan: Surxondaryo

Taqiq:

-Ming sayyora shaxri
Валериан и город тысячи планет
Valerian and the City of a Thousand Planets
- «From the visionary director of The Fifth Element and Lucy» -
Chiqqan yili: 2017
Davlat: Frantsiya, Xitoy, Belgiya, Germaniya, Birlashgan Arab Amirliklari, AQSh
Janr: fantastika, fentezi, jangari, sarguzasht
Davomiyligi: 02:17:01
Tarjima: Professional (Kinoteatr telekanali) o'zbek tilida-Rejissyor: Luk Besson
Rollarda: Dane Dehaan, Kara Delevingne, Klave Ouen, Riyanna, Ethan Hauk, Herbie hankok, kris U, Sem Spruell, Alain Shaba, Rutger Hauer-Tavsif:2700 yil. Valerian va Lorelin - kosmik maxsus agentlar vazifasini bajarib, shubhali ish uchun yollanadi va galaktikaaro fitnaning ishtirokchilariga aylandi. Alfa sayyorasiga galaktikaning uzoq burchaklaridan, har xil dunyolardan yig'ilganlar, g'aroyib kelgindi mavjudodlar hiylasiga uchraydi.
Byudjet: $177 200 000
Daromad: $225 874 228
Dunyo premyerasi: 2017 yil 17 iyul
Yosh chegarasi: 12+-Videoning sifati: BDRip
Video format: MKV-Video: AVC, 1280x536 23.976fps, 4300 kb/s
Audio #1: MP3, 48000Hz, stereo, 128 kb/s, Kinoteatr telekanali, o'zbek tilida
Audio #2: Dolby AC3 48000Hz 6ch 384kbps, iTunes, rus tilida
Audio #3: Dolby AC3 48000Hz stereo 192kbps, AVO, rus tilida
Audio #4: Dolby AC3 48000Hz 6ch 640kbps, Original, ingliz tilida

Media Info

General
Unique ID : 241139930901056957833030895058107639810 (0xB569DC82CF030FA6599481FB6C562802)
Complete name : D:\MEDIA\kino\uztacker\Ming.sayyora.shaxri.2017.BDRip.720p.mkv
Format : Matroska
Format version : Version 4
File size : 5.40 GiB
Duration : 2 h 18 min
Overall bit rate : 5 605 kb/s
Movie name : Valerian.and.the.City.of.a.Thousand.Planets.2017.ExKinoRay
Encoded date : UTC 2018-10-14 19:52:20
Writing application : mkvmerge v20.0.0 ('I Am The Sun') 64-bit
Writing library : libebml v1.3.5 + libmatroska v1.4.8
Video
ID : 1
Format : AVC
Format/Info : Advanced Video Codec
Format profile : High@L4.1
Format settings : CABAC / 12 Ref Frames
Format settings, CABAC : Yes
Format settings, ReFrames : 12 frames
Codec ID : V_MPEG4/ISO/AVC
Duration : 2 h 17 min
Bit rate : 4 300 kb/s
Width : 1 280 pixels
Height : 536 pixels
Display aspect ratio : 2.40:1
Frame rate mode : Constant
Frame rate : 23.976 (24000/1001) FPS
Color space : YUV
Chroma subsampling : 4:2:0
Bit depth : 8 bits
Scan type : Progressive
Bits/(Pixel*Frame) : 0.261
Stream size : 4.11 GiB (76%)
Writing library : x264 core 148 r2705 3f5ed56
Encoding settings : cabac=1 / ref=12 / deblock=1:-3:-3 / analyse=0x3:0x133 / me=umh / subme=11 / psy=1 / psy_rd=1.05:0.05 / mixed_ref=1 / me_range=48 / chroma_me=1 / trellis=2 / 8x8dct=1 / cqm=0 / deadzone=21,11 / fast_pskip=0 / chroma_qp_offset=-3 / threads=24 / lookahead_threads=4 / sliced_threads=0 / nr=0 / decimate=0 / interlaced=0 / bluray_compat=0 / constrained_intra=0 / bframes=10 / b_pyramid=2 / b_adapt=2 / b_bias=0 / direct=3 / weightb=1 / open_gop=0 / weightp=2 / keyint=240 / keyint_min=23 / scenecut=40 / intra_refresh=0 / rc_lookahead=50 / rc=2pass / mbtree=0 / bitrate=4300 / ratetol=1.0 / qcomp=0.60 / qpmin=0 / qpmax=69 / qpstep=4 / cplxblur=20.0 / qblur=0.5 / vbv_maxrate=50000 / vbv_bufsize=62500 / nal_hrd=none / filler=0 / ip_ratio=1.40 / pb_ratio=1.30 / aq=3:0.80
Language : English
Default : Yes
Forced : No
Audio #1
ID : 2
Format : MPEG Audio
Format version : Version 1
Format profile : Layer 3
Format settings : Joint stereo
Codec ID : A_MPEG/L3
Codec ID/Hint : MP3
Duration : 2 h 18 min
Bit rate mode : Constant
Bit rate : 128 kb/s
Channel(s) : 2 channels
Sampling rate : 48.0 kHz
Frame rate : 41.667 FPS (1152 SPF)
Compression mode : Lossy
Stream size : 126 MiB (2%)
Title : Kinoteatr
Language : Uzbek
Default : Yes
Forced : Yes
Audio #2
ID : 3
Format : AC-3
Format/Info : Audio Coding 3
Commercial name : Dolby Digital
Codec ID : A_AC3
Duration : 2 h 17 min
Bit rate mode : Constant
Bit rate : 384 kb/s
Channel(s) : 6 channels
Channel layout : L R C LFE Ls Rs
Sampling rate : 48.0 kHz
Frame rate : 31.250 FPS (1536 SPF)
Bit depth : 16 bits
Compression mode : Lossy
Stream size : 376 MiB (7%)
Title : iTunes
Language : Russian
Service kind : Complete Main
Default : No
Forced : No
Audio #3
ID : 4
Format : AC-3
Format/Info : Audio Coding 3
Commercial name : Dolby Digital
Codec ID : A_AC3
Duration : 2 h 17 min
Bit rate mode : Constant
Bit rate : 192 kb/s
Channel(s) : 2 channels
Channel layout : L R
Sampling rate : 48.0 kHz
Frame rate : 31.250 FPS (1536 SPF)
Bit depth : 16 bits
Compression mode : Lossy
Stream size : 189 MiB (3%)
Title : AVO
Language : Russian
Service kind : Complete Main
Default : No
Forced : No
Audio #4
ID : 5
Format : AC-3
Format/Info : Audio Coding 3
Commercial name : Dolby Digital
Codec ID : A_AC3
Duration : 2 h 17 min
Bit rate mode : Constant
Bit rate : 640 kb/s
Channel(s) : 6 channels
Channel layout : L R C LFE Ls Rs
Sampling rate : 48.0 kHz
Frame rate : 31.250 FPS (1536 SPF)
Bit depth : 16 bits
Compression mode : Lossy
Stream size : 627 MiB (11%)
Title : Original
Language : English
Service kind : Complete Main
Default : No
Forced : No
Text #1
ID : 6
Format : UTF-8
Codec ID : S_TEXT/UTF8
Codec ID/Info : UTF-8 Plain Text
Duration : 2 h 8 min
Bit rate : 1 b/s
Count of elements : 34
Stream size : 1.11 KiB (0%)
Title : Forced
Language : Russian
Default : No
Forced : No
Text #2
ID : 7
Format : UTF-8
Codec ID : S_TEXT/UTF8
Codec ID/Info : UTF-8 Plain Text
Duration : 2 h 6 min
Bit rate : 87 b/s
Count of elements : 1541
Stream size : 81.3 KiB (0%)
Title : Full
Language : Russian
Default : Yes
Forced : Yes
Text #3
ID : 8
Format : UTF-8
Codec ID : S_TEXT/UTF8
Codec ID/Info : UTF-8 Plain Text
Duration : 2 h 8 min
Bit rate : 54 b/s
Count of elements : 1569
Stream size : 51.3 KiB (0%)
Title : Full
Language : English
Default : No
Forced : No
Text #4
ID : 9
Format : UTF-8
Codec ID : S_TEXT/UTF8
Codec ID/Info : UTF-8 Plain Text
Duration : 2 h 13 min
Bit rate : 63 b/s
Count of elements : 1906
Stream size : 62.4 KiB (0%)
Title : SDH
Language : English
Default : No
Forced : No
Menu
00:00:00.000 : en:00:00:00.000
00:12:35.713 : en:00:12:35.713
00:17:29.590 : en:00:17:29.590
00:23:35.789 : en:00:23:35.789
00:32:45.839 : en:00:32:45.839
00:41:19.143 : en:00:41:19.143
00:47:15.666 : en:00:47:15.666
00:56:12.411 : en:00:56:12.411
01:04:25.695 : en:01:04:25.695
01:11:27.908 : en:01:11:27.908
01:20:25.070 : en:01:20:25.070
01:28:13.705 : en:01:28:13.705
01:35:53.915 : en:01:35:53.915
01:41:35.047 : en:01:41:35.047
01:53:37.853 : en:01:53:37.853
02:02:22.585 : en:02:02:22.585

Treyler - rus tilida(mover.uz)

Tarqatma tayyorlandi: RG Kinofilm guruhi nomidan

Profil ShX

SobirR

Jins:
Yigit
Staj:
8 oy 22 kun
Xabarlar:
222

Qayerdan: Navoiy. Uchquduq

Taqiq:

DiKaprioga o'xshab ketarmikan

Mavzu yaratish 15-Okt-2018 09:46 (8 soat o‘tgach)

Iqitibos

Profil ShX
Xabarlarni ko‘rsatish:    

Hozirgi vaqt: 11-Dek 20:39

Vaqtlar farqi: UTC + 5



Siz mavzu yaratishingiz mumkin emas
Siz xabarlarga javob qaytarishingiz mumkin emas
Siz o‘z xabarlaringizni tahrirlashingiz mumkin emas
Siz o‘z xabarlaringizni o‘chirishingiz mumkin emas
Siz so‘rovlarda ovoz berishingiz mumkin emas
Siz xabalarga fayllarni biriktirishingiz mumkin emas
Siz fayllarni ko‘chirishingiz mumkin emas