MRLG ®

Jins:
Yigit
Staj:
11 oy 6 kun
Xabarlar:
379
Taqiq:

Mittivoy rulda«Yaxshi talonchilik uchun nechta musiqa kerak?» FILM HAQIDA MA'LUMOT
Chiqqan yili: 2017
Davlat: Buyuk Britaniya, AQSH
Janr: jangari, triller, jinoyat, musiqa
Davomiyligi: 01:52:39
Tarjima:
Professional to'liq dublyaj [iTunes] Rus tilida
Havaskor tarjima (Bir ovozlik kadr ortidan) O'zbek tilida

Rejissyor: Edgar Rayt / Edgar Wright
ROLLARDA
Ensel Elgort, Kevin Speysi, Lili Djeyms, Eysa Gonsales, Djon Xemm, Djeymi Foks, Djon Berntal, Fli, Lenni Djun, Mika Xovard, Morgan Braun, Mors Diggz

Tavsif
Mittivoy laqabli yosh yigit zamonaviy musiqani yaxshi ko'radi, tezkor haydash va adrenalin uning qonida bor. Uning butun hayoti doimo haydash va otishmalardir, chunki u haydovchi bo'lib, jinoyatchilarni voqea joyidan qochishiga yordam beradi. Bir kuni u chindan ham sevib qoladi va o'yinni tark etishga qaror qiladi, lekin avvaliga u o'z hayotida so'nggi bo'lishi mumkin bo'lgan boshqa vazifani bajarishi kerak.

Texnik ma'lumotlar
КиноПоиск: 7.216 (54 482)
IMDb: 7.80 (217 214)

Sifat: BDRip
Format: AVI
Video: XviD 720x304 (2.35:1) 1399 kbps 23,976 fps 0,267 bpp
Audio №1: AC3 / 5.1 / 48 kHz / 384 kbps / | Rus tilida | iTunes
Audio №2: MP3 / 2.0 / 48 kHz / 128 kbps / | O'zbek tilida | Muallif (Bir kishi kadr ortidan)

MI

General
Complete name                            : D:\Кино\Tarjima filmlar\Mittivoy Rulda (2017 - BDRip) (UZB.AVO + RUS.DUB).avi
Format                                   : AVI
Format/Info                              : Audio Video Interleave
File size                                : 1.51 GiB
Duration                                 : 1 h 52 min
Overall bit rate                         : 1 925 kb/s
Writing application                      : VirtualDubMod 1.5.10.3 | www.virtualdub-fr.org || (build 2550/release)
Writing library                          : VirtualDubMod build 2550/release
Video
ID                                       : 0
Format                                   : MPEG-4 Visual
Format profile                           : Advanced Simple@L5
Format settings, BVOP                    : 1
Format settings, QPel                    : No
Format settings, GMC                     : No warppoints
Format settings, Matrix                  : Custom
Codec ID                                 : XVID
Codec ID/Hint                            : XviD
Duration                                 : 1 h 52 min
Bit rate                                 : 1 399 kb/s
Width                                    : 720 pixels
Height                                   : 304 pixels
Display aspect ratio                     : 2.35:1
Frame rate                               : 23.976 (24000/1001) FPS
Color space                              : YUV
Chroma subsampling                       : 4:2:0
Bit depth                                : 8 bits
Scan type                                : Progressive
Compression mode                         : Lossy
Bits/(Pixel*Frame)                       : 0.267
Stream size                              : 1.10 GiB (73%)
Writing library                          : XviD 73
Audio #1
ID                                       : 1
Format                                   : AC-3
Format/Info                              : Audio Coding 3
Mode extension                           : CM (complete main)
Format settings, Endianness              : Big
Codec ID                                 : 2000
Duration                                 : 1 h 52 min
Bit rate mode                            : Constant
Bit rate                                 : 384 kb/s
Channel(s)                               : 6 channels
Channel positions                        : Front: L C R, Side: L R, LFE
Sampling rate                            : 48.0 kHz
Frame rate                               : 31.250 FPS (1536 spf)
Compression mode                         : Lossy
Stream size                              : 309 MiB (20%)
Alignment                                : Split accross interleaves
Interleave, duration                     : 42  ms (1.00 video frame)
Interleave, preload duration             : 500  ms
Audio #2
ID                                       : 2
Format                                   : MPEG Audio
Format version                           : Version 1
Format profile                           : Layer 3
Codec ID                                 : 55
Codec ID/Hint                            : MP3
Duration                                 : 1 h 52 min
Bit rate mode                            : Constant
Bit rate                                 : 128 kb/s
Channel(s)                               : 2 channels
Sampling rate                            : 48.0 kHz
Compression mode                         : Lossy
Stream size                              : 103 MiB (7%)
Alignment                                : Aligned on interleaves
Interleave, duration                     : 42  ms (1.00 video frame)
Interleave, preload duration             : 504  ms
Writing library                          : LAME3.99r
Encoding settings                        : -m s -V 4 -q 0 -lowpass 17 -b 128

Miniatyura

Filmdan lavhalar


So‘ngi marta tahrirlandi: MRLG (2018-05-27 03:38), Jami tahrirlangan 1 marta
Profil ShX

MRLG ®

Jins:
Yigit
Staj:
11 oy 6 kun
Xabarlar:
379
Taqiq:

Eslatma! Bu MY5 yoki boshqa TV tomonidan tarjima qilingan film emas. Bu bir kishilik havaskorni tarjimasi. Menga uni tarjimasi yoqdi. Aniq va ravon tarjima qilgan.

Mavzu yaratish 23-Dek-2017 21:53 (3 daqiqa o‘tgach)

Iqitibos

Profil ShX
Xabarlarni ko‘rsatish:    

Hozirgi vaqt: 23-Iyul 03:25

Vaqtlar farqi: UTC + 5



Siz mavzu yaratishingiz mumkin emas
Siz xabarlarga javob qaytarishingiz mumkin emas
Siz o‘z xabarlaringizni tahrirlashingiz mumkin emas
Siz o‘z xabarlaringizni o‘chirishingiz mumkin emas
Siz so‘rovlarda ovoz berishingiz mumkin emas
Siz xabalarga fayllarni biriktirishingiz mumkin emas
Siz fayllarni ko‘chirishingiz mumkin emas