˂
˃
 

MRLG ®

Jins:
Yigit
Staj:
1 yil 3 oy
Xabarlar:
523
Taqiq:

Mo'jiza / Чудо / Wonder
Chiqqan yili: 2017
Davlat: AQSH, Gongkong
Janri: drama, oilaviy
Davomiyligi: 01:53:10
Tarjima #1: O'zbek tilida ko'p ovozli kadr ortidan (Sevimli TV)
Tarjima #2: Rus tilida to'liq dublyaj (iTunes)--Rejissyor: Stiven Chboski / Stephen Chbosky
Rollarda: Jeykob Trembley, Ouen Uilson, Izabela Vidovich, Djuliya Roberts, Mark Dotslav, Rukiya Bernard, Jennifer March, Mendi Petinkin, Noa Jup, Brays Geyzar--Tavsif: Avgust Pulman boshqa bolajonlardan farq qilmaydi u boshqalar kabi tug‘ilgan kunlarga borishni,do‘stlari bilan vaqtini yaxshi o‘tkazishni,”Yulduzli jang” kompyuter o‘yinini yoqtiradi,opasi bilan tez-tez janjallashib turadi,kuchigi bilan o‘ynaydi.U bazilarida boshqa bollarga o‘hshamaydi.Chunki u oddiy maktabga bormagan, birinchi sinifdan beri onasi bilan shug‘ullangan. Avgust 27 jarroxlik operatsiyasini o‘tkazgan.Genetik kasallika uchragan yuzi yoq bolakay oddiy insonlar bilan, oddiy xayot kechirishi kerak bo‘ladi.--
Sifat: BDRip
Format: AVI
Video: XviD, 720x304, 1392 kbps, 23,976 fps
Audio #1: MP3 48000Hz stereo 128kbps | O'zbek tilida (Sevimli TV)
Audio #2: Dolby AC3 48000Hz 6ch 384kbps | На русском языке (iTunes)--

Mukofotlar

2018-yil Oskar
Yo'nalishida (1-o'rin):
Eng yaxshi grim va soch turmagi
2018-yil Britaniya akademiyasi
Yo'nalishi (1-o'rin):
Eng yaxshi grim va soch turmagi

Bilasizmi...

Film yozuvchi R. J. Palasioning "Mo'jiza" (2012) romani asosida suratga olingan.
Film qahramonini qiynaydigan kasallik, yuz-jag disostosi yoki Tricher Kollinz sindromi deyiladi.

Media Info

Общее
Полное имя                               : D:\Кино\Tarjima filmlar\Mo'jiza (2017 - BDRip) MRLG.avi
Формат                                   : AVI
Формат/Информация                        : Audio Video Interleave
Размер файла                             : 1,52 Гбайт
Продолжительность                        : 1 ч. 53 м.
Общий поток                              : 1918 Кбит/сек
Название фильма                          : Mo'jiza / Чудо / Wonder (2017 - BDRip) Release by MRLG
Режиссёр                                 : MRLG
Дата записи                              : 09.03.2018
Программа кодирования                    : VirtualDubMod 1.5.10.3 (build 2550/release)
Библиотека кодирования                   : VirtualDubMod build 2550/release
Видео
Идентификатор                            : 0
Формат                                   : MPEG-4 Visual
Профиль формата                          : Advanced Simple@L5
Настройки формата                        : BVOP1 / Custom Matrix
Параметр BVOP формата                    : 1
Параметр QPel формата                    : Нет
Параметр GMC формата                     : Без точки перехода
Параметр матрицы формата                 : Выборочная
Идентификатор кодека                     : XVID
Идентификатор кодека/Подсказка           : XviD
Продолжительность                        : 1 ч. 53 м.
Битрейт                                  : 1392 Кбит/сек
Ширина                                   : 720 пикселей
Высота                                   : 304 пикселя
Соотношение сторон                       : 2,35:1
Частота кадров                           : 23,976 (24000/1001) кадра/сек
Цветовое пространство                    : YUV
Субдискретизация насыщенности            : 4:2:0
Битовая глубина                          : 8 бит
Тип развёртки                            : Прогрессивная
Метод сжатия                             : С потерями
Бит/(Пиксели*Кадры)                      : 0.265
Размер потока                            : 1,10 Гбайт (73%)
Библиотека кодирования                   : XviD 73
Аудио #1
Идентификатор                            : 1
Формат                                   : MPEG Audio
Версия формата                           : Version 1
Профиль формата                          : Layer 3
Настройки формата                        : Joint stereo
Идентификатор кодека                     : 55
Идентификатор кодека/Подсказка           : MP3
Продолжительность                        : 1 ч. 53 м.
Вид битрейта                             : Постоянный
Битрейт                                  : 128 Кбит/сек
Каналы                                   : 2 канала
Частота                                  : 48,0 КГц
Частота кадров                           : 41,667 кадра/сек (1152 SPF)
Метод сжатия                             : С потерями
Размер потока                            : 104 Мбайт (7%)
Выравнивание                             : Соединение по промежуткам
Продолжительность промежутка             : 42  мс. (1,00 видеокадр)
Время предзагрузки промежутка            : 504  мс.
Заголовок                                : O'zbek tilida (Sevimli TV) MRLG
Библиотека кодирования                   : LAME3.100
Настройки программы                      : -m j -V 4 -q 2 -lowpass 17 -b 128
Аудио #2
Идентификатор                            : 2
Формат                                   : AC-3
Формат/Информация                        : Audio Coding 3
Идентификатор кодека                     : 2000
Продолжительность                        : 1 ч. 53 м.
Вид битрейта                             : Постоянный
Битрейт                                  : 384 Кбит/сек
Каналы                                   : 6 каналов
Расположение каналов                     : Front: L C R, Side: L R, LFE
Частота                                  : 48,0 КГц
Частота кадров                           : 31,250 кадров/сек (1536 SPF)
Битовая глубина                          : 16 бит
Метод сжатия                             : С потерями
Размер потока                            : 311 Мбайт (20%)
Выравнивание                             : Разделение по промежуткам
Продолжительность промежутка             : 42  мс. (1,00 видеокадр)
Время предзагрузки промежутка            : 500  мс.
Заголовок                                : На русском языке (iTunes)
ServiceKind/String                       : Complete Main

Miniatyura



So‘ngi marta tahrirlandi: MRLG (2018-03-20 20:00), Jami tahrirlangan 1 marta
Profil ShX

vuelta

Jins:
Yigit
Staj:
1 yil 3 oy
Xabarlar:
298
Taqiq:

daxshat taxlab quyibsizku

Mavzu yaratish 11-Mar-2018 21:41 (9 soat o‘tgach)

Iqitibos

Profil ShX

SobirR

Jins:
Yigit
Staj:
7 oy 28 kun
Xabarlar:
221

Qayerdan: Navoiy. Uchquduq

Taqiq:

Iltimos DJ emas J qilib yozinglar, Ruslarda J tovushi yo'qligi uchun ular shunday yozishadi.

Mavzu yaratish 20-Mar-2018 19:42 (8 kun o‘tgach)

Iqitibos

Profil ShX

MRLG ®

Jins:
Yigit
Staj:
1 yil 3 oy
Xabarlar:
523
Taqiq:

1463Iltimos DJ emas J qilib yozinglar, Ruslarda J tovushi yo'qligi uchun ular shunday yozishadi.
E'tiboringiz uchun rahmat. Bu safar e'tiborliroq bo'lamiz.

Mavzu yaratish 20-Mar-2018 19:59 (17 daqiqa o‘tgach)

Iqitibos

Profil ShX
Xabarlarni ko‘rsatish:    

Hozirgi vaqt: 17-Noy 17:49

Vaqtlar farqi: UTC + 5



Siz mavzu yaratishingiz mumkin emas
Siz xabarlarga javob qaytarishingiz mumkin emas
Siz o‘z xabarlaringizni tahrirlashingiz mumkin emas
Siz o‘z xabarlaringizni o‘chirishingiz mumkin emas
Siz so‘rovlarda ovoz berishingiz mumkin emas
Siz xabalarga fayllarni biriktirishingiz mumkin emas
Siz fayllarni ko‘chirishingiz mumkin emas