˂
˃
Tarqatmalar statistikasi
Ko‘chiraman: [ 1 ]
Ko‘chirmoqdaman: [ 9 ]
Ko‘chirib bo‘ldim: [ 51 ]
 
     
 
 

N.U.R.I.K.B.E.K ®

Jins:
Yigit
Staj:
1 yil 2 oy
Xabarlar:
365

Qayerdan: Jizzax. Paxtakor

Taqiq:

-Mougli | Маугли | Mowgli
--Chiqqan yili: 2018
Davlat: Buyuk Britaniya, AQSH.
Janr: Drama, Kulguli, Sarguzasht, Oilaviy.
Davomiyligi: 01:44:52
Tarjima: Professional (dublyaj qilingan)
Tarjima #1: Professional Yoshlar O'zbek Tilida
Tarjima #2: Professional Rus Tilida
Tarjima #3: Professional Ing Tili--Rejissyor: Endi Serkis.--Rollarda: Roen Chand, Kristian Beyl, Keyt Blanshett, Benedikt Kamberbetch, Naomi Xarris, Endi Serkis, Piter Mullan, Jek Reynor, Eddi Marsan, Tom Xollander,--Tavsif:
Mougli ismli bolaning Hindistonning junglidagi bo'ri to'plamidagi o'sishi haqidagi hikoya. Baloo-ning ayiq va Bagheera panteriga qarashli o'rmonning qattiq qonunlarini o'rganadi va yovvoyi tabiatning aholisini o'zi uchun oladi. Hech kimdan boshqa: dahshatli yo'lbars Sher Xan. Biroq tez orada bola o'rmonda u yo'lbarsdan ko'ra ko'proq xavf-xatarga duch kelishi mumkinligini bilib oladi va ulardan biri o'zining insoniy kelib chiqishi bo'lib, u xuddi toothy yirtqich hayvon bilan yuzma-yuz uchrashishi kerak ..--Videoning sifati: WEBRip-HEVC 1080p 10 Bit
Video format: MKV--Video: HVC1, 1920x808, 23.976 fps, 2 100 kb/s
Audio: MP3 48000Hz stereo 128kbps O'zbek Tili
Audio 2: AC-3, 48000 Hz, 6 ch, 640 kb/s Rus Tili
Audio 3: HE-AAC / LC, 48000 Hz, 6 ch, 213 kb/s Ing Tili-
-

Media Info

General
Format : Matroska
Format version : Version 4 / Version 2
File size : 2.26 GiB
Duration : 1 h 44 min
Overall bit rate : 3 084 kb/s
Movie name : Mowgli.Legend.of.the.Jungle.2018.1080p.10bit.HEVC | AllTor.Me
Encoded date : UTC 2018-12-14 12:00:44
Writing application : mkvmerge v15.0.0 ('Duel with the Devil') 64-bit
Writing library : libebml v1.3.5 + libmatroska v1.4.5
Attachments : poster | AllTor.Me.png
Video
ID : 1
Format : HEVC
Format/Info : High Efficiency Video Coding
Format profile : Main 10@L4@Main
Codec ID : V_MPEGH/ISO/HEVC
Duration : 1 h 44 min
Bit rate : 2 100 kb/s
Width : 1 920 pixels
Height : 808 pixels
Display aspect ratio : 2.40:1
Frame rate mode : Constant
Frame rate : 23.976 (24000/1001) FPS
Color space : YUV
Chroma subsampling : 4:2:0
Bit depth : 10 bits
Bits/(Pixel*Frame) : 0.056
Stream size : 1.54 GiB (68%)
Title : Mowgli.Legend.of.the.Jungle.2018.1080p.10bit.HEVC | AllTor.Me
Default : Yes
Forced : No
Audio #1
ID : 2
Format : MPEG Audio
Format version : Version 1
Format profile : Layer 3
Mode : Joint stereo
Mode extension : MS Stereo
Codec ID : A_MPEG/L3
Codec ID/Hint : MP3
Duration : 1 h 44 min
Bit rate mode : Constant
Bit rate : 128 kb/s
Channel(s) : 2 channels
Sampling rate : 48.0 kHz
Frame rate : 41.667 FPS (1152 SPF)
Compression mode : Lossy
Stream size : 96.0 MiB (4%)
Title : O'zbek Tili
Writing library : LAME3.99.5
Language : Uzbek
Default : Yes
Forced : No
Audio #2
ID : 3
Format : E-AC-3
Format/Info : Enhanced Audio Coding 3
Format settings, Endianness : Big
Codec ID : A_EAC3
Duration : 1 h 44 min
Bit rate mode : Constant
Bit rate : 640 kb/s
Channel(s) : 6 channels
Channel positions : Front: L C R, Side: L R, LFE
Sampling rate : 48.0 kHz
Frame rate : 187.500 FPS (256 SPF)
Compression mode : Lossy
Stream size : 480 MiB (21%)
Title : Rus Tili
Language : Russian
Service kind : Complete Main
Default : No
Forced : Yes
Audio #3
ID : 4
Format : AAC
Format/Info : Advanced Audio Codec
Format profile : HE-AAC / LC
Codec ID : A_AAC
Duration : 1 h 44 min
Bit rate : 213 kb/s
Channel(s) : 6 channels
Channel(s)_Original : 18 channels
Channel positions : Front: 14, Side: C, Back: C, LFE= 2
Sampling rate : 48.0 kHz / 24.0 kHz
Frame rate : 23.438 FPS (1024 SPF)
Compression mode : Lossy
Delay relative to video : 23 ms
Stream size : 160 MiB (7%)
Title : Ing Tili
Language : English
Default : No
Forced : No
LAVHALAR


So‘ngi marta tahrirlandi: N.U.R.I.K.B.E.K (2018-12-17 17:58), Jami tahrirlangan 3 marta
Profil ShX

Dj.Max

Jins:
Yigit
Staj:
7 oy 4 kun
Xabarlar:
27

Qayerdan: Farg'ona

Taqiq:

Yoshlar tarjima qildi shekilli...

Mavzu yaratish 14-Dek-2018 17:41 (2 daqiqa o‘tgach)

Iqitibos

Profil ShX

N.U.R.I.K.B.E.K ®

Jins:
Yigit
Staj:
1 yil 2 oy
Xabarlar:
365

Qayerdan: Jizzax. Paxtakor

Taqiq:

Dj.Max, bilmadim esda yo edi

Mavzu yaratish 14-Dek-2018 17:44 (3 daqiqa o‘tgach)

Iqitibos

Profil ShX

N.U.R.I.K.B.E.K ®

Jins:
Yigit
Staj:
1 yil 2 oy
Xabarlar:
365

Qayerdan: Jizzax. Paxtakor

Taqiq:

Dj.Max, trafik bormi Tavsifini perevod qivoring

Mavzu yaratish 14-Dek-2018 17:46 (1 daqiqa o‘tgach)

Iqitibos

Profil ShX

Asliddin

Jins:
Ko‘rsatilmagan
Staj:
27 kun
Xabarlar:
1
Taqiq:

Ko`chirib oldim ruscha varianti ko`rinayapdi o`zbekchasi qanday bo`ladi?

Mavzu yaratish 27-Dek-2018 13:21 (12 kun o‘tgach)

Iqitibos

Profil ShX
Xabarlarni ko‘rsatish:    

Hozirgi vaqt: 23-Yan 01:29

Vaqtlar farqi: UTC + 5



Siz mavzu yaratishingiz mumkin emas
Siz xabarlarga javob qaytarishingiz mumkin emas
Siz o‘z xabarlaringizni tahrirlashingiz mumkin emas
Siz o‘z xabarlaringizni o‘chirishingiz mumkin emas
Siz so‘rovlarda ovoz berishingiz mumkin emas
Siz xabalarga fayllarni biriktirishingiz mumkin emas
Siz fayllarni ko‘chirishingiz mumkin emas