˂
˃
Tarqatmalar statistikasi
Ko‘chiraman: [ 3 ]
Ko‘chirmoqdaman: [ 13 ]
Ko‘chirib bo‘ldim: [ 9 ]
 
     
 
 

Dj.Max ®

Jins:
Yigit
Staj:
5 oy 23 kun
Xabarlar:
23

Qayerdan: Farg'ona

Taqiq:

Muhabbat quyoshi / Мистер Саншайн / Mr. Sunshine-- Chiqqan yili: 2018
Davlat: Janubiy Koreya
Janr: Romantik, tarixiy, drama
Davomiyligi: 01:07:05 x 24
Tarjima: [Yoshlar] telekanali dublyaji-Rejissyor: Li In Bok--Rollarda: Li Byon Xon, Kim Te Ri, Yu Yon Sok, Pyon Yo Xan--Tavsif: Filmning asosiy qahramoni Yu Jin bolaligida qullarning farzandi bo'lib, ota-onasini ho'jayinlari o'ldirganidan so'ng, kemada yashinib amerikaga qochib ketadi. Yillar o'tib u o'z vatani Chosonga qaytishi kerak, ammo dushman, amerika askari sifatida. Taqdirning irodasi bilan bu yerda uni o'z sevgisi kutib oladi...-- --Sifat: HDTVRip 720p
Format: AVI
Video: H264, 1920x540 (16:9), 1618 kbps , 25 fps, yuv420p
Audio: Uzbek / AAC / 2.0 / 48 kHz / 128 kbps / [Yoshlar TV]
Audio: Koreys / AAC / 2.0 / 48 kHz / 128 kbps / [TVN]-

Media Info

General
Complete name                  : F:\VIDEO\TARJIMA SERIALLAR\MUHABBAT QUYOSHI\Muhabbat quyoshi 01 [Dj.Max].avi
Format                         : AVI
Format/Info                    : Audio Video Interleave
Format profile                 : OpenDML
Format settings                : rec
File size                      : 986 MiB
Duration                       : 1 h 13 min
Overall bit rate               : 1 885 kb/s
Writing application            : AVI-Mux GUI 1.17.8.3, Feb 16 201019:42:50
Video
ID                             : 0
Format                         : AVC
Format/Info                    : Advanced Video Codec
Format profile                 : Main@L3.1
Format settings                : CABAC / 1 Ref Frames
Format settings, CABAC         : Yes
Format settings, ReFrames      : 1 frame
Codec ID                       : H264
Duration                       : 1 h 13 min
Bit rate                       : 1 612 kb/s
Width                          : 1 280 pixels
Height                         : 540 pixels
Display aspect ratio           : 2.40:1
Frame rate mode                : Variable
Frame rate                     : 25.000 FPS
Color space                    : YUV
Chroma subsampling             : 4:2:0
Bit depth                      : 8 bits
Scan type                      : Progressive
Bits/(Pixel*Frame)             : 0.093
Stream size                    : 846 MiB (86%)
Writing library                : x264 core 129
Encoding settings              : cabac=1 / ref=1 / deblock=1:0:0 / analyse=0x1:0x131 / me=dia / subme=2 / psy=1 / psy_rd=1.00:0.00 / mixed_ref=0 / me_range=16 / chroma_me=1 / trellis=0 / 8x8dct=0 / cqm=0 / deadzone=21,11 / fast_pskip=1 / chroma_qp_offset=0 / threads=8 / lookahead_threads=1 / sliced_threads=0 / nr=0 / decimate=1 / interlaced=0 / bluray_compat=0 / constrained_intra=0 / bframes=0 / weightp=2 / keyint=250 / keyint_min=25 / scenecut=40 / intra_refresh=0 / rc_lookahead=40 / rc=abr / mbtree=1 / bitrate=1612 / ratetol=1.0 / qcomp=0.60 / qpmin=10 / qpmax=51 / qpstep=4 / ip_ratio=1.41 / aq=1:1.00
Audio #1
ID                             : 1
Format                         : AAC
Format/Info                    : Advanced Audio Codec
Format profile                 : LC
Codec ID                       : FF-2
Duration                       : 1 h 13 min
Bit rate                       : 125 kb/s
Channel(s)                     : 2 channels
Channel positions              : Front: L R
Sampling rate                  : 48.0 kHz
Frame rate                     : 46.875 FPS (1024 SPF)
Compression mode               : Lossy
Stream size                    : 65.5 MiB (7%)
Alignment                      : Split accross interleaves
Interleave, duration           : 21  ms (0.53 video frame)
Interleave, preload duration   : 90  ms
Title                          : Muhabbat quyoshi (O'zbek) [Dj.Max]
Audio #2
ID                             : 2
Format                         : AAC
Format/Info                    : Advanced Audio Codec
Format profile                 : LC
Codec ID                       : FF-2
Duration                       : 1 h 13 min
Bit rate                       : 125 kb/s
Channel(s)                     : 2 channels
Channel positions              : Front: L R
Sampling rate                  : 48.0 kHz
Frame rate                     : 46.875 FPS (1024 SPF)
Compression mode               : Lossy
Stream size                    : 65.5 MiB (7%)
Alignment                      : Split accross interleaves
Interleave, duration           : 21  ms (0.53 video frame)
Interleave, preload duration   : 122  ms
Title                          : Muhabbat quyoshi (Koreys) [Dj.Max]
- © Template by Ilkhom1988


So‘ngi marta tahrirlandi: Dj.Max (2018-11-14 10:39), Jami tahrirlangan 10 marta
Profil ShX

Unofficial

Jins:
Yigit
Staj:
8 oy 15 kun
Xabarlar:
445

Qayerdan: Nukus

Taqiq:

Bu serial Sevimli dan ham bo'layapdimi?

Mavzu yaratish 19-Sen-2018 18:48 (7 soat o‘tgach)

Iqitibos

Profil ShX

Dj.Max ®

Jins:
Yigit
Staj:
5 oy 23 kun
Xabarlar:
23

Qayerdan: Farg'ona

Taqiq:

Ko'chirib olganlar qochib ketmaymiz...

Mavzu yaratish 21-Sen-2018 09:13 (1 kun 14 soat o‘tgach)

Iqitibos

Profil ShX

Dj.Max ®

Jins:
Yigit
Staj:
5 oy 23 kun
Xabarlar:
23

Qayerdan: Farg'ona

Taqiq:

Torrentni yangidan ko'chirib olinglar. Seialni 4-qismi qo'shildi...

Mavzu yaratish 21-Sen-2018 15:16 (6 soat o‘tgach)

Iqitibos

Profil ShX

Tulkin

Jins:
Yigit
Staj:
11 oy
Xabarlar:
46

Qayerdan: Kumkurgan

Taqiq:

ovozi sevimli tvnikimi yoki yoshalr tv nikimi

Mavzu yaratish 21-Sen-2018 16:42 (1 soat 25 daqiqa o‘tgach)

Iqitibos

Profil ShX

Tulkin

Jins:
Yigit
Staj:
11 oy
Xabarlar:
46

Qayerdan: Kumkurgan

Taqiq:

Audio: Uzbek / AAC / 2.0 / 48 kHz / 128 kbps / [Sevimli TV]
Tarjima: [Yoshlar] telekanali dublyaji

Mavzu yaratish 21-Sen-2018 16:43 (39 soniya o‘tgach)

Iqitibos

Profil ShX

Dj.Max ®

Jins:
Yigit
Staj:
5 oy 23 kun
Xabarlar:
23

Qayerdan: Farg'ona

Taqiq:

Torrent faylni yangilaymiz. 5-10-qismlar ham qo'shildi!

Mavzu yaratish 06-Okt-2018 20:15 (15 kun o‘tgach)

Iqitibos

Profil ShX

vuelta

Jins:
Yigit
Staj:
1 yil 3 oy
Xabarlar:
300
Taqiq:

zor serialga uxshaydi

Mavzu yaratish 07-Okt-2018 20:24 (1 kun o‘tgach)

Iqitibos

Profil ShX

azizbek

Jins:
Yigit
Staj:
1 yil
Xabarlar:
139

Qayerdan: Surxondaryo

Taqiq:

vuelta, Xozircha o'xshayapti?????

Mavzu yaratish 07-Okt-2018 23:00 (2 soat 35 daqiqa o‘tgach)

Iqitibos

Profil ShX

Unofficial

Jins:
Yigit
Staj:
8 oy 15 kun
Xabarlar:
445

Qayerdan: Nukus

Taqiq:

Dj.Max, Shu serialni davomini ham joylang

Mavzu yaratish 30-Okt-2018 09:33 (22 kun o‘tgach)

Iqitibos

Profil ShX

Dj.Max ®

Jins:
Yigit
Staj:
5 oy 23 kun
Xabarlar:
23

Qayerdan: Farg'ona

Taqiq:

Alvido samimiy janob...
Yana ko'rishamiz...
O'zimizning mustaqil mamlakatda!

Mavzu yaratish 14-Noy-2018 14:59 (15 kun o‘tgach)

Iqitibos

Profil ShX

Unofficial

Jins:
Yigit
Staj:
8 oy 15 kun
Xabarlar:
445

Qayerdan: Nukus

Taqiq:

Dj.Max, Raxmat reliz uchun! Tug'ilgan kuningiz muborak bo'lsin.

Mavzu yaratish 14-Noy-2018 19:25 (4 soat o‘tgach)

Iqitibos

Profil ShX

Unofficial

Jins:
Yigit
Staj:
8 oy 15 kun
Xabarlar:
445

Qayerdan: Nukus

Taqiq:

Dj.Max, yuklashdan to'xtab qoldiku

Mavzu yaratish 29-Noy-2018 10:15 (14 kun o‘tgach)

Iqitibos

Profil ShX
Xabarlarni ko‘rsatish:    

Hozirgi vaqt: 11-Dek 20:15

Vaqtlar farqi: UTC + 5



Siz mavzu yaratishingiz mumkin emas
Siz xabarlarga javob qaytarishingiz mumkin emas
Siz o‘z xabarlaringizni tahrirlashingiz mumkin emas
Siz o‘z xabarlaringizni o‘chirishingiz mumkin emas
Siz so‘rovlarda ovoz berishingiz mumkin emas
Siz xabalarga fayllarni biriktirishingiz mumkin emas
Siz fayllarni ko‘chirishingiz mumkin emas