˂
˃
Tarqatmalar statistikasi
Yoʻq
 
     
 
 

Abdulloh ®

Jins:
Ko‘rsatilmagan
Staj:
1 yil 1 oy
Xabarlar:
41
Taqiq:

Muhojir | The Foreigner
Davlat: Buyuk Britaniya, Xitoy, AQSh
Janr: boyevik, triller, drama, kriminal, detektiv
Chiqqan yili: 2017
Davomiyligi: 01:53:17
-Tarjima: Professional (dublyaj qilingan)
Tarjima haqida qo'shimcha ma'lumot: MY 5
Original ovoz yo'lagi: Inglizcha
Qo'shimcha ma'lumot: MY 5 Telekanalidan uzilgan joylari ruscha
-Rejissiyor: Martin Kempbell-Rollarda: Cathy Lewung, Jackie Chan, Rufus Jones, Mark Tandy, Kaolan Byrne, Aaron Monahan, Pierce Brosnan-Описание:
Vetnam urushi faxriysi sobiq quyon agenti Quan ko'p yillar oldin qurollarini qo'yib, tinch hayotni boshlagan. Ammo, terrorizmga qarshi kurashda uning ko'z yoshlari qotillari o'lganidan keyin, rasmiylar jinoyatchilarni qidirishga shoshilmayapti, deb hisoblashadi, ammo Quanning o'zi qotilni qidirishni boshlaydi. U odil jazo berish uchun hamma narsani qiladi ...-

Videoning sifati: WEB-DLRip
Формат видео: MKV
-Video: Xvid 720x304 24fps
Audio: Audio: MP3 44100Hz stereo 320kbps [A: Uzbek [uzb] (mp3, 44100 Hz, stereo, 320 kb/s) [default]
Audio: Dolby AC3 48000Hz 6ch 384kbps [A: ac3, 48000 Hz, 5.1, 384 kb/s]

MediaInfo


General
Unique ID : 202785416809921913382922268589687096669 (0x988F0CF786543E58ABDCB97B7CA4C55D)
Complete name : D:\Internet\Kino UZ tracker\A-Studio\The Foreigner Muhojir 720p.mkv
Format : Matroska
Format version : Version 4 / Version 2
File size : 1.61 GiB
Duration : 1 h 53 min
Overall bit rate : 2 040 kb/s
Encoded date : UTC 2017-12-27 17:10:01
Writing application : mkvmerge v7.5.0 ('Glass Culture') 64bit built on Jan 4 2015 16:48:44
Writing library : libebml v1.3.1 + libmatroska v1.4.2
Video
ID : 2
Format : MPEG-4 Visual
Format profile : Advanced Simple@L5
Format settings : BVOP2
Format settings, BVOP : 2
Format settings, QPel : No
Format settings, GMC : No warppoints
Format settings, Matrix : Default (MPEG)
Codec ID : V_MS/VFW/FOURCC / XVID
Codec ID/Hint : XviD
Duration : 1 h 53 min
Bit rate : 1 334 kb/s
Width : 720 pixels
Height : 304 pixels
Display aspect ratio : 2.35:1
Frame rate mode : Constant
Frame rate : 24.000 FPS
Color space : YUV
Chroma subsampling : 4:2:0
Bit depth : 8 bits
Scan type : Progressive
Compression mode : Lossy
Bits/(Pixel*Frame) : 0.254
Stream size : 1.06 GiB (65%)
Writing library : XviD 1.2.1 (UTC 2008-12-04)
Default : Yes
Forced : No
Audio #1
ID : 1
Format : MPEG Audio
Format version : Version 1
Format profile : Layer 3
Format settings : Joint stereo
Codec ID : A_MPEG/L3
Codec ID/Hint : MP3
Duration : 1 h 53 min
Bit rate mode : Constant
Bit rate : 320 kb/s
Channel(s) : 2 channels
Sampling rate : 44.1 kHz
Frame rate : 38.281 FPS (1152 SPF)
Compression mode : Lossy
Stream size : 259 MiB (16%)
Language : Uzbek
Default : Yes
Forced : No
Audio #2
ID : 3
Format : AC-3
Format/Info : Audio Coding 3
Codec ID : A_AC3
Duration : 1 h 53 min
Bit rate mode : Constant
Bit rate : 384 kb/s
Channel(s) : 6 channels
Channel positions : Front: L C R, Side: L R, LFE
Sampling rate : 48.0 kHz
Frame rate : 31.250 FPS (1536 SPF)
Bit depth : 16 bits
Compression mode : Lossy
Stream size : 311 MiB (19%)
Service kind : Complete Main
Default : No
Forced : No

Lavhalar

Profil ShX

Gr@nd

Jins:
Yigit
Staj:
1 yil 1 oy
Xabarlar:
158

Qayerdan: Jizzax Forish

Taqiq:

Abdulloh, Ovozi yaxshi tushmagan ku kinoni ozino ovozi kesgan joyingizdag balant xullas qo'ygan ovozingiz bir ortda qolip ketadi bir oldinlap ketadi etibor qiling

Mavzu yaratish 31-Dek-2017 09:22 (3 kun o‘tgach)

Iqitibos

Profil ShX
Xabarlarni ko‘rsatish:    

Hozirgi vaqt: 15-Noy 10:47

Vaqtlar farqi: UTC + 5



Siz mavzu yaratishingiz mumkin emas
Siz xabarlarga javob qaytarishingiz mumkin emas
Siz o‘z xabarlaringizni tahrirlashingiz mumkin emas
Siz o‘z xabarlaringizni o‘chirishingiz mumkin emas
Siz so‘rovlarda ovoz berishingiz mumkin emas
Siz xabalarga fayllarni biriktirishingiz mumkin emas
Siz fayllarni ko‘chirishingiz mumkin emas