Tarqatmalar statistikasi
Ko‘chirib bo‘ldim: [ 2 ]
 
     
 
 

Abdulloh ®

Jins:
Ko‘rsatilmagan
Staj:
11 oy 21 kun
Xabarlar:
41
Taqiq:

Muhojir | The Foreigner

Davlat: Buyuk Britaniya, Xitoy, AQSh
Janr: triller, drama, jinoyat, detektiv
Chiqqan yili: 2017
Davomiyligi: 01:53:17-
Tarjima: Professional (dublyaj qilingan)
Tarjima haqida qo'shimcha ma'lumot: MY5
Original ovoz yo'lagi: Inglizcha-

Rejissiyor: Martin Campbell-Rollarda: Cathy Lewung, Jackie Chan, Rufus Jones, Mark Tandy, Kaolan Byrne, Aaron Monahan, Pierce Brosnan-
Описание:
Vetnam urushi faxriysi sobiq quyon agenti Quan ko'p yillar oldin qurollarini qo'yib, tinch hayotni boshlagan. Ammo, terrorizmga qarshi kurashda uning ko'z yoshlari qotillari o'lganidan keyin, rasmiylar jinoyatchilarni qidirishga shoshilmayapti, deb hisoblashadi, ammo Quanning o'zi qotilni qidirishni boshlaydi. U odil jazo berish uchun hamma narsani qiladi ...-

Videoning sifati: WEB-DL
Формат видео: MKV-Video: MPEG4 Video (H264) 1920x804 24fps [V: English [eng] (h264 high L4.0, yuv420p, 1920x804)
Audio: Audio 1 : MP3 44100Hz stereo 320kbps [uzb]
Audio 2 : Dolby AC3 48000Hz 6ch 384kbps [rus]
Audio 3 : Dolby AC3 48000Hz 6ch 384kbps [eng]

MediaInfo

General
Unique ID : 190589013654819001627631512775013694939 (0x8F621BDD6406899FB41C8DE8BD5BFDDB)
Complete name : D:\Internet\Kino UZ tracker\A-Studio\The Foreigner Muhojir 1080p.mkv
Format : Matroska
Format version : Version 4 / Version 2
File size : 4.44 GiB
Duration : 1 h 53 min
Overall bit rate : 5 599 kb/s
Encoded date : UTC 2017-12-27 17:11:32
Writing application : mkvmerge v7.5.0 ('Glass Culture') 64bit built on Jan 4 2015 16:48:44
Writing library : libebml v1.3.1 + libmatroska v1.4.2
Video
ID : 2
Format : AVC
Format/Info : Advanced Video Codec
Format profile : High@L4
Format settings : CABAC / 5 Ref Frames
Format settings, CABAC : Yes
Format settings, ReFrames : 5 frames
Codec ID : V_MPEG4/ISO/AVC
Duration : 1 h 53 min
Bit rate : 4 515 kb/s
Width : 1 920 pixels
Height : 804 pixels
Display aspect ratio : 2.40:1
Frame rate mode : Constant
Frame rate : 24.000 FPS
Color space : YUV
Chroma subsampling : 4:2:0
Bit depth : 8 bits
Scan type : Progressive
Bits/(Pixel*Frame) : 0.122
Stream size : 3.57 GiB (81%)
Language : English
Default : Yes
Forced : No
Color range : Limited
Color primaries : BT.709
Transfer characteristics : BT.709
Matrix coefficients : BT.709
Audio #1
ID : 1
Format : MPEG Audio
Format version : Version 1
Format profile : Layer 3
Format settings : Joint stereo
Codec ID : A_MPEG/L3
Codec ID/Hint : MP3
Duration : 1 h 53 min
Bit rate mode : Constant
Bit rate : 320 kb/s
Channel(s) : 2 channels
Sampling rate : 44.1 kHz
Frame rate : 38.281 FPS (1152 SPF)
Compression mode : Lossy
Stream size : 259 MiB (6%)
Language : Uzbek
Default : Yes
Forced : No
Audio #2
ID : 3
Format : AC-3
Format/Info : Audio Coding 3
Codec ID : A_AC3
Duration : 1 h 53 min
Bit rate mode : Constant
Bit rate : 384 kb/s
Channel(s) : 6 channels
Channel positions : Front: L C R, Side: L R, LFE
Sampling rate : 48.0 kHz
Frame rate : 31.250 FPS (1536 SPF)
Bit depth : 16 bits
Compression mode : Lossy
Stream size : 311 MiB (7%)
Language : Russian
Service kind : Complete Main
Default : No
Forced : No
Audio #3
ID : 4
Format : AC-3
Format/Info : Audio Coding 3
Codec ID : A_AC3
Duration : 1 h 53 min
Bit rate mode : Constant
Bit rate : 384 kb/s
Channel(s) : 6 channels
Channel positions : Front: L C R, Side: L R, LFE
Sampling rate : 48.0 kHz
Frame rate : 31.250 FPS (1536 SPF)
Bit depth : 16 bits
Compression mode : Lossy
Stream size : 312 MiB (7%)
Language : English
Service kind : Complete Main
Default : No
Forced : No
Menu
00:00:00.000 : en:Глава 1
00:07:04.458 : en:Глава 2
00:13:39.583 : en:Глава 3
00:21:20.458 : en:Глава 4
00:27:58.041 : en:Глава 5
00:34:41.999 : en:Глава 6
00:40:47.624 : en:Глава 7
00:46:10.832 : en:Глава 8
00:51:57.873 : en:Глава 9
00:57:21.081 : en:Глава 10
01:02:44.872 : en:Глава 11
01:10:39.747 : en:Глава 12
01:16:54.455 : en:Глава 13
01:22:55.871 : en:Глава 14
01:28:47.454 : en:Глава 15
01:33:10.454 : en:Глава 16
01:38:23.079 : en:Глава 17
01:44:49.995 : en:Глава 18

Lavhalar

Profil ShX

nurillo123

Jins:
Ko‘rsatilmagan
Staj:
10 oy 22 kun
Xabarlar:
16
Taqiq:

Abdulloh, uzbechaga qasi pragramadan foydalanvos

Mavzu yaratish 28-Dek-2017 16:06 (16 soat o‘tgach)

Iqitibos

Profil ShX

ravshan

Jins:
Ko‘rsatilmagan
Staj:
9 oy 12 kun
Xabarlar:
1
Taqiq:

torrent fayl yo`qku

Mavzu yaratish 28-Dek-2017 18:05 (1 soat 59 daqiqa o‘tgach)

Iqitibos

Profil ShX

Abdulloh ®

Jins:
Ko‘rsatilmagan
Staj:
11 oy 21 kun
Xabarlar:
41
Taqiq:

Adobe Premiere Pro 2015

Mavzu yaratish 28-Dek-2017 18:52 (46 daqiqa o‘tgach)

Iqitibos

Profil ShX

nurillo123

Jins:
Ko‘rsatilmagan
Staj:
10 oy 22 kun
Xabarlar:
16
Taqiq:

Abdulloh, Adobe Premiere Pro Yardam bervorolisizmi uzbech qip ogiriwka

Mavzu yaratish 28-Dek-2017 19:09 (16 daqiqa o‘tgach)

Iqitibos

Profil ShX

Wishmаster

Jins:
Yigit
Staj:
11 oy 6 kun
Xabarlar:
2

Qayerdan: Tel Aviv, Israel

Taqiq:

Рахмат)

Mavzu yaratish 07-Yan-2018 16:18 (9 kun o‘tgach)

Iqitibos

Profil ShX
Xabarlarni ko‘rsatish:    

Hozirgi vaqt: 21-Sen 10:33

Vaqtlar farqi: UTC + 5



Siz mavzu yaratishingiz mumkin emas
Siz xabarlarga javob qaytarishingiz mumkin emas
Siz o‘z xabarlaringizni tahrirlashingiz mumkin emas
Siz o‘z xabarlaringizni o‘chirishingiz mumkin emas
Siz so‘rovlarda ovoz berishingiz mumkin emas
Siz xabalarga fayllarni biriktirishingiz mumkin emas
Siz fayllarni ko‘chirishingiz mumkin emas