Tarqatmalar statistikasi
Yoʻq
 
     
 
 

Gr@nd ®

Jins:
Yigit
Staj:
11 oy 25 kun
Xabarlar:
150

Qayerdan: Jizzax Forish

Taqiq:

Mumiya | Мумия | The Mummy- -Davlat: AQSH
Janr: fentеzi, jangari, trillеr, sarguzasht
Chiqqan yili: 2017
Davomiyligi: 01:50:06-Tarjima: Professional (dublyaj qilingan) O'zbek tilida-Rejissiyor: Alеks Kurttsman-Rollarda: Tom Kruz, Rassеl Krou, Annabеll Uollis, Sofiya Butеlla, Djеyk Djonson, Kortni B. Vens, Marvan Kеnzari, Saymon Atеrton, Stivеn Tompson, Djеyms Arama-Описание: Buyuk lahadda shafqatsiz cho'lda, Misr fir'avnining qizi ko'milgan, lekin kun keladi va u dunyoga haqli ravishda munosib bo'lgan narsaga qaytadi. Bundan buyon, dunyo xudo va hashoratlar tomonidan boshqariladi.-Videoning sifati: WEB-DLRip
Формат видео: MKV-Video: MPEG4 Video (H264) 1916x792 23.976fps 4 531 Kbps
Audio: Dolby AC3 48000Hz / 6ch / 384 kbps Rus
Audio: MP3 48000Hz / 2ch / 128kbps Uzb
-

MediaInfo

General
Unique ID : 174171790764809286635112735757045877787 (0x830844486D54B6D98B6E456775004C1B)
Format : Matroska
Format version : Version 4 / Version 2
File size : 3.96 GiB
Duration : 1h 50mn
Overall bit rate : 5 145 Kbps
Movie name : Xusan_Gr@nd
Encoded date : UTC 2017-11-26 15:57:33
Writing application : mkvmerge v6.8.0 ('Theme for Great Cities') 64bit built on Mar 2 2014 21:34:26
Writing library : libebml v1.3.0 + libmatroska v1.4.1
Video
ID : 1
Format : AVC
Format/Info : Advanced Video Codec
Format profile : High@L4.0
Format settings, CABAC : Yes
Format settings, ReFrames : 5 frames
Codec ID : V_MPEG4/ISO/AVC
Duration : 1h 50mn
Bit rate : 4 531 Kbps
Width : 1 916 pixels
Height : 792 pixels
Display aspect ratio : 2.40:1
Frame rate : 23.976 fps
Color space : YUV
Chroma subsampling : 4:2:0
Bit depth : 8 bits
Scan type : Progressive
Bits/(Pixel*Frame) : 0.125
Stream size : 3.48 GiB (88%)
Language : English
Default : Yes
Forced : No
Color primaries : BT.709-5, BT.1361, IEC 61966-2-4, SMPTE RP177
Transfer characteristics : BT.709-5, BT.1361
Matrix coefficients : BT.709-5, BT.1361, IEC 61966-2-4 709, SMPTE RP177
Audio #1
ID : 2
Format : AC-3
Format/Info : Audio Coding 3
Mode extension : CM (complete main)
Format settings, Endianness : Big
Codec ID : A_AC3
Duration : 1h 50mn
Bit rate mode : Constant
Bit rate : 384 Kbps
Channel(s) : 6 channels
Channel positions : Front: L C R, Side: L R, LFE
Sampling rate : 48.0 KHz
Bit depth : 16 bits
Compression mode : Lossy
Stream size : 302 MiB (7%)
Title : iTunes
Language : Russian
Default : Yes
Forced : No
Audio #2
ID : 3
Format : MPEG Audio
Format version : Version 1
Format profile : Layer 3
Mode : Joint stereo
Codec ID : A_MPEG/L3
Codec ID/Hint : MP3
Duration : 1h 50mn
Bit rate mode : Constant
Bit rate : 128 Kbps
Channel(s) : 2 channels
Sampling rate : 44.1 KHz
Compression mode : Lossy
Stream size : 101 MiB (2%)
Title : Xusan_Gr@nd
Writing library : LAME3.98.2
Language : Uzbek
Default : No
Forced : No
-


So‘ngi marta tahrirlandi: Gr@nd (2017-12-19 23:23), Jami tahrirlangan 1 marta
Profil ShX

Gr@nd ®

Jins:
Yigit
Staj:
11 oy 25 kun
Xabarlar:
150

Qayerdan: Jizzax Forish

Taqiq:

Azim_Foto, Teredo ishlating

Mavzu yaratish 19-Dek-2017 22:43 (35 daqiqa o‘tgach)

Iqitibos

Profil ShX

MRLG

Jins:
Yigit
Staj:
1 yil 1 oy
Xabarlar:
465
Taqiq:

Azim_Foto, Javob beraman, bu filmda o'zbek tili bor. Yaxshiroq qidiring.

Mavzu yaratish 27-Dek-2017 08:38 (7 kun o‘tgach)

Iqitibos

Profil ShX
Xabarlarni ko‘rsatish:    

Hozirgi vaqt: 21-Sen 11:39

Vaqtlar farqi: UTC + 5



Siz mavzu yaratishingiz mumkin emas
Siz xabarlarga javob qaytarishingiz mumkin emas
Siz o‘z xabarlaringizni tahrirlashingiz mumkin emas
Siz o‘z xabarlaringizni o‘chirishingiz mumkin emas
Siz so‘rovlarda ovoz berishingiz mumkin emas
Siz xabalarga fayllarni biriktirishingiz mumkin emas
Siz fayllarni ko‘chirishingiz mumkin emas