˂
˃
Tarqatmalar statistikasi
Ko‘chiraman: [ 1 ]
Ko‘chirmoqdaman: [ 5 ]
Ko‘chirib bo‘ldim: [ 14 ]
 
     
 
 

Dj.Max ®

Jins:
Yigit
Staj:
5 oy
Xabarlar:
19

Qayerdan: Farg'ona

Taqiq:

Narigi taraf / Другая сторона / Öteki Taraf-- Chiqqan yili: 2017
Davlat: Turkiya
Janr: Triller, Drama
Davomiyligi: 01:37:46
Tarjima: [Sevimli TV] telekanali dublyaji--Ssenariy: O'zjan Deniz, Avni Tuna Dilligil, Hatem Xrayche
Bastakor: Ulas Pakkan
Rejissyor: O'zjan Deniz
Prodyusser: Kristian Konti--Rollarda: O'zjan Deniz, Maryem Uzerli, Asli Enver, O'sman Vober--Tavsif: Chetin ismli yigit sevgilisi Eje bilan baxtli hayotni boshlaydi. Ammo, bir kuni uning eski do'sti Sara ishdan bo'shashiga qodir bo'lgan yangi ishni taklif qiladi. Chetin yangi ishini deb boshqa shaharga ko'chib o'tadi. U o'zi bilan sevgilisi Ejeni birga olib ketadi.
Eje esa yangi uyda maxfiy xonaga qamalib qoladi. Ejening ovozini hech kim eshitolmaydi.
Qisqa vaqt ichida Chetinning hayotida Ejeni o'rnini Sara egallaydi. Sara esa uyda Ejening ovozlarini eshitib qoladi. Bu haqida Chetinga aytishni istamaydi.
Chetin sevgilisi Ejeni maxfiy xonadan olib chiqoladimi?--Sifat: WEB-DL(1080)
Format: AVI
Video: 1916x800 25fps 4457kbps
Audio: Uzbek / AAC / 2.0 / 48 kHz / 128 kbps / [Sevimli TV]
Audio: Turk / AAC / 2.0 / 48 kHz / 128 kbps / [Original]
Hajmi: 3.22 GB-- --

Media Info

General
Complete name                  : Narigi taraf [Dj.Max].avi
Format                         : AVI
Format/Info                    : Audio Video Interleave
Format profile                 : OpenDML
Format settings                : rec
File size                      : 3.23 GiB
Duration                       : 1 h 37 min
Overall bit rate               : 4 724 kb/s
Movie name                     : Narigi taraf [Dj.Max]
Writing application            : AVI-Mux GUI 1.17.8.3, Feb 16 201019:42:50
Video
ID                             : 0
Format                         : AVC
Format/Info                    : Advanced Video Codec
Format profile                 : Main@L4
Format settings                : CABAC / 1 Ref Frames
Format settings, CABAC         : Yes
Format settings, ReFrames      : 1 frame
Codec ID                       : H264
Duration                       : 1 h 37 min
Bit rate                       : 4 500 kb/s
Width                          : 1 916 pixels
Height                         : 800 pixels
Display aspect ratio           : 2.40:1
Frame rate mode                : Variable
Frame rate                     : 25.000 FPS
Color space                    : YUV
Chroma subsampling             : 4:2:0
Bit depth                      : 8 bits
Scan type                      : Progressive
Bits/(Pixel*Frame)             : 0.117
Stream size                    : 3.04 GiB (94%)
Writing library                : x264 core 129
Audio #1
ID                             : 1
Format                         : AAC
Format/Info                    : Advanced Audio Codec
Format profile                 : LC
Codec ID                       : FF-2
Duration                       : 1 h 37 min
Bit rate                       : 125 kb/s
Channel(s)                     : 2 channels
Channel positions              : Front: L R
Sampling rate                  : 48.0 kHz
Frame rate                     : 46.875 FPS (1024 SPF)
Compression mode               : Lossy
Stream size                    : 87.7 MiB (3%)
Alignment                      : Split accross interleaves
Interleave, duration           : 21  ms (0.53 video frame)
Interleave, preload duration   : 97  ms
Title                          : Narigi taraf (O'zbek) [Dj.Max]
Audio #2
ID                             : 2
Format                         : AAC
Format/Info                    : Advanced Audio Codec
Format profile                 : LC
Codec ID                       : FF-2
Duration                       : 1 h 37 min
Bit rate                       : 125 kb/s
Channel(s)                     : 2 channels
Channel positions              : Front: L R
Sampling rate                  : 48.0 kHz
Frame rate                     : 46.875 FPS (1024 SPF)
Compression mode               : Lossy
Stream size                    : 87.6 MiB (3%)
Alignment                      : Split accross interleaves
Interleave, duration           : 21  ms (0.53 video frame)
Interleave, preload duration   : 80  ms
Title                          : Narigi taraf (Turk) [Dj.Max]
- © Template by Dj.Max


So‘ngi marta tahrirlandi: Dj.Max (2018-10-07 19:00), Jami tahrirlangan 1 marta
Profil ShX

Dj.Max ®

Jins:
Yigit
Staj:
5 oy
Xabarlar:
19

Qayerdan: Farg'ona

Taqiq:

15 kishi RAHMAT tugmasini bosganidan so'ng tezlik beriladi.

Mavzu yaratish 07-Okt-2018 14:35 (3 daqiqa o‘tgach)

Iqitibos

Profil ShX

maxa

Jins:
Yigit
Staj:
8 oy
Xabarlar:
97
Taqiq:

637815 kishi RAHMAT tugmasini bosganidan so'ng tezlik beriladi.
Ko'chirmay qo'ya qoldim,tezliging o'zingda qola qolsin.

Mavzu yaratish 07-Okt-2018 14:45 (9 daqiqa o‘tgach)

Iqitibos

Profil ShX

azizbek

Jins:
Yigit
Staj:
1 yil
Xabarlar:
139

Qayerdan: Surxondaryo

Taqiq:

maxa, ay

Mavzu yaratish 07-Okt-2018 14:50 (5 daqiqa o‘tgach)

Iqitibos

Profil ShX

iJalol_Production

Jins:
Yigit
Staj:
7 oy 23 kun
Xabarlar:
67
Taqiq:

637815 kishi RAHMAT tugmasini bosganidan so'ng tezlik beriladi.
Fransiyaniki zor ciqqan

Mavzu yaratish 07-Okt-2018 15:00 (9 daqiqa o‘tgach)

Iqitibos

Profil ShX

UmarShoh

Jins:
Yigit
Staj:
8 oy 13 kun
Xabarlar:
371
Taqiq:

637815 kishi RAHMAT tugmasini bosganidan so'ng tezlik beriladi.
15 marotaba raxmat sizga ! ag

Mavzu yaratish 07-Okt-2018 17:48 (2 soat 48 daqiqa o‘tgach)

Iqitibos

Profil ShX

Unofficial

Jins:
Yigit
Staj:
7 oy 22 kun
Xabarlar:
425

Qayerdan: Nukus

Taqiq:

637815 kishi RAHMAT tugmasini bosganidan so'ng tezlik beriladi.
O'zing ko'chira qol unaqada, o'zingga siylov

Mavzu yaratish 07-Okt-2018 18:58 (1 soat 9 daqiqa o‘tgach)

Iqitibos

Profil ShX

MRLG

Jins:
Yigit
Staj:
1 yil 3 oy
Xabarlar:
524
Taqiq:

Tushunmadim, bu qanaqa muomala? Ushbu foydalanuvchimiz puliga sotib olgan traffikini ketqazib 3-4 Gblik filmni mirdan 2-3 soat vaqtini ketgizib ko'chirib oladi, TVdan yozib olgan ovoz yo'lakchasini 2-3 soat oralig'ida montaj qiladi, trekerga 10-30 daqiqa vaqtini ketqazib joylaydi. Shu trekerni rivoji uchun, boshqa foydalanuvchilar bilan baham ko'rishadi. Buni evaziga atigi bitta "rahmat" tugmasini bosishni so'ragani uchun unga qarata qo'pol tarzda javob qaytarish shartmikan? Trekerimizda shu kunlarda 2-3 ta relizlarda "rahmatni so'rab olish" aksiyasi bo'lyapti. Bundan maqsad relizerlarni qilgan mehnatini qadrlamaydigan noinsof, ko'chirib bo'lgach taraqatishga turishni istamaydigan foydalanuvchilarni insofga chaqirish edi. Sizlardan xar bir qilingan reliz uchun 5 ming sumdan telefonga pul tashlanglar deyilmayapti, shunchaki birovning mehnatini qadrlanglar deyapmiz holos. Siz bosgan o'sha arzimas tugma, relizer uchun qanchalik muhim rol o'ynashini siz kabilar qayerdan ham bilsin. Relizerga qancha ko`p minnatdor bo`lsak shuncha kam, unga aytgan rahmatlarimiz evaziga u ertaga yana reliz qila boshlaydi, trekerimizda yangi filmlar yoki boshqa fayllar joylanadi. Agar uni mehnatini munosib deb bilmasak va unga minnatdorchilik bildirmasak, uni trekerdan ko'ngli qolishi tayinki. Rahmat tugmasini bosinglar deb aytganlar nomidan uzr so'rayman. Sizlarga shunchalik og'ir botgani uchun.

Mavzu yaratish 07-Okt-2018 19:14 (16 daqiqa o‘tgach)

Iqitibos

Profil ShX
Xabarlarni ko‘rsatish:    

Hozirgi vaqt: 19-Noy 03:22

Vaqtlar farqi: UTC + 5



Siz mavzu yaratishingiz mumkin emas
Siz xabarlarga javob qaytarishingiz mumkin emas
Siz o‘z xabarlaringizni tahrirlashingiz mumkin emas
Siz o‘z xabarlaringizni o‘chirishingiz mumkin emas
Siz so‘rovlarda ovoz berishingiz mumkin emas
Siz xabalarga fayllarni biriktirishingiz mumkin emas
Siz fayllarni ko‘chirishingiz mumkin emas