Tarqatmalar statistikasi
Yoʻq
 
     
 
 

Nematillo ®

Jins:
Ko‘rsatilmagan
Staj:
11 oy
Xabarlar:
7
Taqiq:

-Zorro Jamlanma- -

Zorro

Niqobdagi Zorro | Зорро Davlat: AQSH, Germaniya
Janr: melodrama, komediya , jangari
Chiqqan yili: 1998
Davomiyligi: 02:17:38
Tarjima: Professional (dublyaj qilingan)
Cубтитры: yo'q
Original ovoz yo'lagi: Ruscha
Rejissiyor: Martin Campbell
Rollarda: Antonio Banderas, Anthony Hopkins, Catherine Zeta-Jones, Stuart Wilson, William Marquez, Tony Amendola, Victor Rivers, LK Jones, Pedro Armenendaris Jr., Joaquim de Almeida
Описание: Barcha kuchini adolat uchun kurashga bergan qari qahramon o'nlab yillar davomida turmushga chiqdi, xotini va qizini yo'qotdi, yovuzlik bilan kurashadigan yosh yigitlarga qarshi kurash olib boradigan yosh yigitga uning bilimlarini, qobiliyatini va qora niqobini etkazadi.
Videoning sifati: HDRip
Формат видео: MKV
Video: Video: Xvid 720x304 23.976fps [V: mpeg4 advanced simple profile, yuv420p, 720x304 [default]]
Audio: Audio: MP3 44100Hz stereo 128kbps [A: to'liq dublaj [uzb] (mp3, 44100 Hz, stereo, 128 kb/s) [default]] Audio: Dolby AC3 48000Hz 6ch 448kbps [A: professional dublaj [rus] (ac3, 48000 Hz, 5.1, 448 kb/s)

MediaInfo

General
Unique ID : 241819823005126278804782344213604712344 (0xB5ECCDC79E8D16C1B7272C4BCDCDBF98)
Complete name : F:\Movies\Lyubimiy\Zorro (Dilogy)\Niqobdagi Zorro.1998.BDRip.uzb.rus.eng.mkv
Format : Matroska
Format version : Version 4 / Version 2
File size : 3.01 GiB
Duration : 2 h 17 min
Overall bit rate : 3 135 kb/s
Encoded date : UTC 2013-08-14 16:25:46
Writing application : mkvmerge v6.3.0 ('You can't stop me!') built on Jun 28 2013 20:09:41
Writing library : libebml v1.3.0 + libmatroska v1.4.0
Video
ID : 1
Format : MPEG-4 Visual
Format profile : Advanced Simple@L5
Format settings, BVOP : 1
Format settings, QPel : No
Format settings, GMC : No warppoints
Format settings, Matrix : Custom
Codec ID : V_MS/VFW/FOURCC / XVID
Codec ID/Hint : XviD
Duration : 2 h 17 min
Bit rate : 2 049 kb/s
Width : 720 pixels
Height : 304 pixels
Display aspect ratio : 2.35:1
Frame rate mode : Constant
Frame rate : 23.976 (23976/1000) FPS
Color space : YUV
Chroma subsampling : 4:2:0
Bit depth : 8 bits
Scan type : Progressive
Compression mode : Lossy
Bits/(Pixel*Frame) : 0.390
Stream size : 1.97 GiB (65%)
Writing library : XviD 1.2.1 (UTC 2008-12-04)
Default : Yes
Forced : No
Audio #1
ID : 2
Format : MPEG Audio
Format version : Version 1
Format profile : Layer 3
Mode : Joint stereo
Mode extension : MS Stereo
Codec ID : A_MPEG/L3
Codec ID/Hint : MP3
Duration : 2 h 17 min
Bit rate mode : Constant
Bit rate : 128 kb/s
Channel(s) : 2 channels
Sampling rate : 44.1 kHz
Compression mode : Lossy
Stream size : 126 MiB (4%)
Title : to'liq dublaj
Writing library : LAME3.97
Language : Uzbek
Default : Yes
Forced : No
Audio #2
ID : 3
Format : AC-3
Format/Info : Audio Coding 3
Mode extension : CM (complete main)
Format settings, Endianness : Big
Codec ID : A_AC3
Duration : 2 h 17 min
Bit rate mode : Constant
Bit rate : 448 kb/s
Channel(s) : 6 channels
Channel positions : Front: L C R, Side: L R, LFE
Sampling rate : 48.0 kHz
Frame rate : 31.250 FPS (1536 spf)
Compression mode : Lossy
Stream size : 441 MiB (14%)
Title : professional dublaj
Language : Russian
Default : No
Forced : No
Audio #3
ID : 4
Format : AC-3
Format/Info : Audio Coding 3
Mode extension : CM (complete main)
Format settings, Endianness : Big
Codec ID : A_AC3
Duration : 2 h 17 min
Bit rate mode : Constant
Bit rate : 448 kb/s
Channel(s) : 6 channels
Channel positions : Front: L C R, Side: L R, LFE
Sampling rate : 48.0 kHz
Frame rate : 31.250 FPS (1536 spf)
Compression mode : Lossy
Stream size : 441 MiB (14%)
Title : original
Language : English
Default : No
Forced : No

Lavhalar

-

Zorro

Zorro afsonasi| The Legend of Zorro Davlat: AQSH, Germaniya
Janr: melodrama, komediya , jangari
Chiqqan yili: 2005
Davomiyligi: 02:10:28
Tarjima: Professional (dublyaj qilingan)
Cубтитры: yo'q
Original ovoz yo'lagi: Ruscha,Ingilizcha
Rejissiyor: Martin Campbell
Rollarda:Antonio Banderas, Ketrin Zeta-Jones, Rufus Sewell, Nik Chinland, Julio Oskar Mechoso, Shuler Hensley, Maykl Emerson, Adrian Alonso
Описание:10 yil o'tgach Alejandro Elena va Joaquinning o'g'li maska va abadiy sarguzashtlarga chek qo'yishni va'da qilmoqda, ammo bu rejalar amalga oshirilmaydi, chunki yangi fitna amalga oshirilayapti, faqat kuchli Zorro uni kurashishi mumkin ...
Videoning sifati: BDRip
Формат видео: MKV
VideoXvid 720x304 23.976fps [V: mpeg4 advanced simple profile, yuv420p, 720x304 [default]
Audio: Audio: MP3 44100Hz stereo 128kbps [A: to'liq dublaj [uzb] (mp3, 44100 Hz, stereo, 128 kb/s) [default]]
Audio: Dolby AC3 48000Hz 6ch 384kbps [A: professional dublaj [rus] (ac3, 48000 Hz, 5.1, 384 kb/s)]
Audio: Dolby AC3 48000Hz 6ch 384kbps [A: original [eng] (ac3, 48000 Hz, 5.1, 384 kb/s)]

MediaInfo

General
Unique ID : 218772852279825960584544745806586382603 (0xA4961E64988F79A380CDBCD72B97090B)
Complete name : F:\Movies\Lyubimiy\Zorro (Dilogy)\Zorro afsonasi.2005.BDRip.uzb.rus.eng.mkv
Format : Matroska
Format version : Version 4 / Version 2
File size : 2.66 GiB
Duration : 2 h 10 min
Overall bit rate : 2 916 kb/s
Encoded date : UTC 2013-08-03 09:15:46
Writing application : mkvmerge v6.3.0 ('You can't stop me!') built on Jun 28 2013 20:09:41
Writing library : libebml v1.3.0 + libmatroska v1.4.0
Video
ID : 1
Format : MPEG-4 Visual
Format profile : Advanced Simple@L5
Format settings, BVOP : 1
Format settings, QPel : No
Format settings, GMC : No warppoints
Format settings, Matrix : Custom
Codec ID : V_MS/VFW/FOURCC / XVID
Codec ID/Hint : XviD
Duration : 2 h 10 min
Bit rate : 1 962 kb/s
Width : 720 pixels
Height : 304 pixels
Display aspect ratio : 2.35:1
Frame rate mode : Constant
Frame rate : 23.976 (23976/1000) FPS
Color space : YUV
Chroma subsampling : 4:2:0
Bit depth : 8 bits
Scan type : Progressive
Compression mode : Lossy
Bits/(Pixel*Frame) : 0.374
Stream size : 1.79 GiB (67%)
Writing library : XviD 1.2.1 (UTC 2008-12-04)
Default : Yes
Forced : No
Audio #1
ID : 2
Format : MPEG Audio
Format version : Version 1
Format profile : Layer 3
Mode : Joint stereo
Codec ID : A_MPEG/L3
Codec ID/Hint : MP3
Duration : 2 h 10 min
Bit rate mode : Constant
Bit rate : 128 kb/s
Channel(s) : 2 channels
Sampling rate : 44.1 kHz
Compression mode : Lossy
Stream size : 119 MiB (4%)
Title : to'liq dublaj
Writing library : LAME3.97
Language : Uzbek
Default : Yes
Forced : No
Audio #2
ID : 3
Format : AC-3
Format/Info : Audio Coding 3
Mode extension : CM (complete main)
Format settings, Endianness : Big
Codec ID : A_AC3
Duration : 2 h 10 min
Bit rate mode : Constant
Bit rate : 384 kb/s
Channel(s) : 6 channels
Channel positions : Front: L C R, Side: L R, LFE
Sampling rate : 48.0 kHz
Frame rate : 31.250 FPS (1536 spf)
Compression mode : Lossy
Stream size : 358 MiB (13%)
Title : professional dublaj
Language : Russian
Default : No
Forced : No
Audio #3
ID : 4
Format : AC-3
Format/Info : Audio Coding 3
Mode extension : CM (complete main)
Format settings, Endianness : Big
Codec ID : A_AC3
Duration : 2 h 10 min
Bit rate mode : Constant
Bit rate : 384 kb/s
Channel(s) : 6 channels
Channel positions : Front: L C R, Side: L R, LFE
Sampling rate : 48.0 kHz
Frame rate : 31.250 FPS (1536 spf)
Compression mode : Lossy
Stream size : 358 MiB (13%)
Title : original
Language : English
Default : No
Forced : No

Lavhalar

Profil ShX

Nematillo ®

Jins:
Ko‘rsatilmagan
Staj:
11 oy
Xabarlar:
7
Taqiq:

kamchiliklar bo`lishi mumkun

Mavzu yaratish 25-Noy-2017 23:05 (2 daqiqa o‘tgach)

Iqitibos

Profil ShX
Xabarlarni ko‘rsatish:    

Hozirgi vaqt: 22-Iyul 19:26

Vaqtlar farqi: UTC + 5



Siz mavzu yaratishingiz mumkin emas
Siz xabarlarga javob qaytarishingiz mumkin emas
Siz o‘z xabarlaringizni tahrirlashingiz mumkin emas
Siz o‘z xabarlaringizni o‘chirishingiz mumkin emas
Siz so‘rovlarda ovoz berishingiz mumkin emas
Siz xabalarga fayllarni biriktirishingiz mumkin emas
Siz fayllarni ko‘chirishingiz mumkin emas