˂
˃
Tarqatmalar statistikasi
Yoʻq
 
     
 
 

BoboMUROD ®

Jins:
Ko‘rsatilmagan
Staj:
1 yil 2 oy
Xabarlar:
14
Taqiq:

Normning Sarguzashtlari / Norm of the North
Davlat: Hindiston, AQSH
Janr: Multfilm, komediya, sarguzasht, oilaviy
Davomiyligi: 01:30:30
Chiqqan yili: 2016
Tarjima: Профессиональный (дублированный)
Rejissyor: Trevor Uoll
Rollarda: Rob Schnayder (Norm), Hezer Grem (Vera), Ken Jong (Mr. Grin), Bill Nayi (Socrat), Kolm Mini (Grandfather), Loretta Divayn (Tamesia), Maykl MakElhatton (Laurens), Mayya Key (Olimpia)
Ma`lumot: Встречайте! Норм и Несокрушимые — добродушный белый медведь и шустрые лемминги. Их миссия — спасти родную Арктику от коварной корпорации. Могущественный босс Мистер Грин задумал построить здесь, среди чистых льдов, город богачей, и пушистый отряд должен дать противнику бой на его территории.Норм и Несокрушимые отправляются прямо в каменные джунгли мегаполиса. Их обаяние, отвага, шутки и танцы — особенно зажигательный «Арктик Шейк» — растопят сердца горожан, но для победы мало просто стать звёздами. Впереди — настоящие испытания и вихрь приключений.
Качество: DVDRip
Формат: AVI
Видео: Xvid 640x360 25fps 1015kbp
Аудио: MP3 44100Hz stereo 128kbps

Подробные технические данные

General
Complete name : D:\KINO\MULTIK\Normning Sarguzashtlari - Norm of the North.avi
Format : AVI
Format/Info : Audio Video Interleave
File size : 705 MiB
Duration : 1 h 25 min
Overall bit rate : 1 156 kb/s
Writing application : MEncoder SVN-r30881(20100311-gcc4.3.3)
Writing library : MPlayer
Video
ID : 0
Format : MPEG-4 Visual
Format profile : Advanced Simple@L5
Format settings, BVOP : 2
Format settings, QPel : No
Format settings, GMC : No warppoints
Format settings, Matrix : Default (H.263)
Codec ID : XVID
Codec ID/Hint : XviD
Duration : 1 h 25 min
Bit rate : 1 016 kb/s
Width : 640 pixels
Height : 360 pixels
Display aspect ratio : 16:9
Frame rate : 25.000 FPS
Color space : YUV
Chroma subsampling : 4:2:0
Bit depth : 8 bits
Scan type : Progressive
Compression mode : Lossy
Bits/(Pixel*Frame) : 0.176
Stream size : 619 MiB (88%)
Writing library : XviD 1.2.1 (UTC 2008-12-04)
Audio
ID : 1
Format : MPEG Audio
Format version : Version 1
Format profile : Layer 3
Mode : Joint stereo
Mode extension : MS Stereo
Codec ID : 55
Codec ID/Hint : MP3
Duration : 1 h 25 min
Bit rate mode : Constant
Bit rate : 128 kb/s
Channel(s) : 2 channels
Sampling rate : 44.1 kHz
Compression mode : Lossy
Delay relative to video : 40 ms
Stream size : 78.0 MiB (11%)
Alignment : Aligned on interleaves
Interleave, duration : 26 ms (0.65 video frame)
Interleave, preload duration : 522 ms
Writing library : LAME3.98


So‘ngi marta tahrirlandi: BoboMUROD (2017-10-21 11:22), Jami tahrirlangan 1 marta
Profil ShX

Vampire_1987

Jins:
Ko‘rsatilmagan
Staj:
1 yil 3 oy
Xabarlar:
115
Taqiq:

551
Страна: Hindiston, AQSH
Жанр: Multfilm, komediya, sarguzasht, oilaviy
Продолжительность: 01:30:30
Год выпуска: 2016
Перевод: Профессиональный (дублированный)
Русские субтитры: нет
Режиссёр: Trevor Uoll
Роли озвучивали: Rob Schnayder (Norm), Hezer Grem (Vera), Ken Jong (Mr. Grin), Bill Nayi (Socrat), Kolm Mini (Grandfather), Loretta Divayn (Tamesia), Maykl MakElhatton (Laurens), Mayya Key (Olimpia)
Описание: Встречайте! Норм и Несокрушимые — добродушный белый медведь и шустрые лемминги. Их миссия — спасти родную Арктику от коварной корпорации. Могущественный босс Мистер Грин задумал построить здесь, среди чистых льдов, город богачей, и пушистый отряд должен дать противнику бой на его территории.Норм и Несокрушимые отправляются прямо в каменные джунгли мегаполиса. Их обаяние, отвага, шутки и танцы — особенно зажигательный «Арктик Шейк» — растопят сердца горожан, но для победы мало просто стать звёздами. Впереди — настоящие испытания и вихрь приключений.
Качество: DVDRip
Формат: AVI
Видео: Xvid 640x360 25fps 1015kbp
Аудио: MP3 44100Hz stereo 128kbps
Субтитры: "отсутствуют"
Подробные технические данные
Ozbek tilida Yozing ) Bular Bilan Batafsil tanishib Chiqing http://uztracker.me/viewtopic.php?t=115&view=newest#newest

Mavzu yaratish 21-Okt-2017 10:29 (14 soat o‘tgach)

Iqitibos

Profil ShX

Vampire_1987

Jins:
Ko‘rsatilmagan
Staj:
1 yil 3 oy
Xabarlar:
115
Taqiq:

551Tarjima: Профессиональный (дублированный)
O'zbek Tilida Yozing
551Подробные технические данные
[Media Info] Bo'ladi

Mavzu yaratish 22-Okt-2017 23:51 (1 kun 13 soat o‘tgach)

Iqitibos

Profil ShX

Topik 2016 yil multfilmlari forumidan Vaqtincha tarqatmalar ga ko'chirildi
Vampire_1987

Mavzu yaratish 22-Okt-2017 23:58 (7 daqiqa o‘tgach)

Xabarlarni ko‘rsatish:    

Hozirgi vaqt: 11-Dek 20:15

Vaqtlar farqi: UTC + 5



Siz mavzu yaratishingiz mumkin emas
Siz xabarlarga javob qaytarishingiz mumkin emas
Siz o‘z xabarlaringizni tahrirlashingiz mumkin emas
Siz o‘z xabarlaringizni o‘chirishingiz mumkin emas
Siz so‘rovlarda ovoz berishingiz mumkin emas
Siz xabalarga fayllarni biriktirishingiz mumkin emas
Siz fayllarni ko‘chirishingiz mumkin emas