Tarqatmalar statistikasi
Yoʻq
 
     
 
 

Gr@nd ®

Jins:
Yigit
Staj:
11 oy 25 kun
Xabarlar:
150

Qayerdan: Jizzax Forish

Taqiq:

- -Nufuz / Богатей / Raees- -Davlat: Hindiston
Janr: Jangari, trillеr, kriminal
Chiqqan yili: 2017
Davomiyligi: 02:22:51-Перевод: Профессиональный (дублированный) O'zbek tilida
Rejissiyor: Raxul Dilip-Rollarda: Shax Rukx Kxan, Navazuddin Siddikui, Maxira Kxan, Atul Kulkarni, Mumtaz Sorkar, Djaydip Axlavat, Sanni Lеonе, Xasan Axmеd, Abdul Axad Asif, Shiba Chadxa-Описание: Для жестокого и умного бутлегера наступают тяжелые времена, когда храбрый полицейский начинает его преследовать.-Качество видео: WEB-DL
Формат видео: MKV-Video: MPEG4 Video (H264) 1280x536 24fps 3 910 Kbps
Audio: Dolby AC3 48000Hz 6ch Hin
Audio: MP3 48000Hz 2ch 128kbps Uzb-

MediaInfo

General
Unique ID : 245591235662151257915919293343705395238 (0xB8C326C7A92140B69DA3BE495BFCF026)
Format : Matroska
Format version : Version 4 / Version 2
File size : 4.50 GiB
Duration : 2h 22mn
Overall bit rate : 4 512 Kbps
Movie name : Xusan_Gr@nd
Encoded date : UTC 2017-06-16 16:43:05
Writing application : mkvmerge v6.8.0 ('Theme for Great Cities') 64bit built on Mar 2 2014 21:34:26
Writing library : libebml v1.3.0 + libmatroska v1.4.1
Video
ID : 1
Format : AVC
Format/Info : Advanced Video Codec
Format profile : Main@L3.1
Format settings, CABAC : No
Format settings, ReFrames : 2 frames
Codec ID : V_MPEG4/ISO/AVC
Duration : 2h 22mn
Bit rate : 3 910 Kbps
Width : 1 280 pixels
Height : 536 pixels
Display aspect ratio : 2.40:1
Frame rate : 24.000 fps
Color space : YUV
Chroma subsampling : 4:2:0
Bit depth : 8 bits
Scan type : Progressive
Bits/(Pixel*Frame) : 0.237
Stream size : 3.90 GiB (87%)
Title : DDR
Language : Hindi
Default : Yes
Forced : No
Color primaries : BT.709-5, BT.1361, IEC 61966-2-4, SMPTE RP177
Transfer characteristics : BT.709-5, BT.1361
Matrix coefficients : BT.709-5, BT.1361, IEC 61966-2-4 709, SMPTE RP177
Audio #1
ID : 2
Format : AC-3
Format/Info : Audio Coding 3
Mode extension : CM (complete main)
Format settings, Endianness : Big
Codec ID : A_AC3
Duration : 2h 22mn
Bit rate mode : Constant
Bit rate : 384 Kbps
Channel(s) : 6 channels
Channel positions : Front: L C R, Side: L R, LFE
Sampling rate : 48.0 KHz
Bit depth : 16 bits
Compression mode : Lossy
Stream size : 392 MiB (9%)
Title : DDR
Language : Hindi
Default : Yes
Forced : No
Audio #2
ID : 3
Format : MPEG Audio
Format version : Version 1
Format profile : Layer 3
Mode : Joint stereo
Mode extension : MS Stereo
Codec ID : A_MPEG/L3
Codec ID/Hint : MP3
Duration : 2h 22mn
Bit rate mode : Constant
Bit rate : 128 Kbps
Channel(s) : 2 channels
Sampling rate : 44.1 KHz
Compression mode : Lossy
Stream size : 131 MiB (3%)
Title : Xusan_Gr@nd
Writing library : LAME3.98.2
Language : Uzbek
Default : No
Forced : No
Profil ShX
Xabarlarni ko‘rsatish:    

Hozirgi vaqt: 21-Sen 05:42

Vaqtlar farqi: UTC + 5



Siz mavzu yaratishingiz mumkin emas
Siz xabarlarga javob qaytarishingiz mumkin emas
Siz o‘z xabarlaringizni tahrirlashingiz mumkin emas
Siz o‘z xabarlaringizni o‘chirishingiz mumkin emas
Siz so‘rovlarda ovoz berishingiz mumkin emas
Siz xabalarga fayllarni biriktirishingiz mumkin emas
Siz fayllarni ko‘chirishingiz mumkin emas