˂
˃
 

MRLG ®

Jins:
Yigit
Staj:
1 yil 3 oy
Xabarlar:
526
Taqiq:

Oilaviy firibgarlar / Семейное ограбление / Mes trésors-««O'g'rilik - bu ularning qonida bor»»- Chiqqan yili: 2017
Davlat: Fransiya
Janr: komediya
Davomiyligi: 01:27:01
Tarjima #1: To'liq dublyaj [iTunes]
Tarjima #2: Ko'p ovozli kadr ortidan [MY5]-Rollarda: Jan Reno, Rem Kerisi, Kamil Shamu, Bruno Sanches, Paskal Demolon, Jan Renes, Marion Briye, Yuje Terri, Zina Yesepchuk--Rejissyor: Paskal Burdo--Tavsif: Anjela va Anjelika - bir-biridan farqli ikki qiz. Faqat, otalari bir inson. Afsuski, uni ko'rishmagan. Va kunlarning birida qizlarning hayotida otalari paydo bo'ladi.-- -Sifat: WEB-DLRip
Format: AVI
Video: XviD, 720x304 (2.35:1), 1856 kbps, 25 fps, 0,339 bpp
Audio №1: AC3 / 5.1 / 48 kHz / 384 kbps | Rus tilida (iTunes)
Audio №2: MP3 / 2.0 / 48 kHz / 128 kbps | O'zbek tilida (MY5)-

Media Info

General
Complete name                            : D:\Кино\Tarjima filmlar\Oilaviy Firibgarlar (2017 - WEB-DLRip)  iTunes + MY5.avi
Format                                   : AVI
Format/Info                              : Audio Video Interleave
File size                                : 1.45 GiB
Duration                                 : 1 h 27 min
Overall bit rate                         : 2 383 kb/s
Movie name                               : CemeYH0e.0gPabLeH1e.2016.D.WeB-DLRip.14OOMB
Writing application                      : VirtualDubMod 1.5.10.3 | www.virtualdub-fr.org || (build 2550/release)
Writing library                          : VirtualDubMod build 2550/release
Original source form/Name                : Movie
Video
ID                                       : 0
Format                                   : MPEG-4 Visual
Format profile                           : Advanced Simple@L5
Format settings, BVOP                    : 2
Format settings, QPel                    : No
Format settings, GMC                     : No warppoints
Format settings, Matrix                  : Default (MPEG)
Codec ID                                 : XVID
Codec ID/Hint                            : XviD
Duration                                 : 1 h 27 min
Bit rate                                 : 1 857 kb/s
Width                                    : 720 pixels
Height                                   : 304 pixels
Display aspect ratio                     : 2.35:1
Frame rate                               : 25.000 FPS
Color space                              : YUV
Chroma subsampling                       : 4:2:0
Bit depth                                : 8 bits
Scan type                                : Progressive
Compression mode                         : Lossy
Bits/(Pixel*Frame)                       : 0.339
Stream size                              : 1.13 GiB (78%)
Writing library                          : XviD 1.2.1 (UTC 2008-12-04)
Audio #1
ID                                       : 1
Format                                   : AC-3
Format/Info                              : Audio Coding 3
Mode extension                           : CM (complete main)
Format settings, Endianness              : Big
Codec ID                                 : 2000
Duration                                 : 1 h 27 min
Bit rate mode                            : Constant
Bit rate                                 : 384 kb/s
Channel(s)                               : 6 channels
Channel positions                        : Front: L C R, Side: L R, LFE
Sampling rate                            : 48.0 kHz
Frame rate                               : 31.250 FPS (1536 spf)
Compression mode                         : Lossy
Stream size                              : 239 MiB (16%)
Alignment                                : Split accross interleaves
Interleave, duration                     : 40  ms (1.00 video frame)
Interleave, preload duration             : 500  ms
Audio #2
ID                                       : 2
Format                                   : MPEG Audio
Format version                           : Version 1
Format profile                           : Layer 3
Codec ID                                 : 55
Codec ID/Hint                            : MP3
Duration                                 : 1 h 27 min
Bit rate mode                            : Constant
Bit rate                                 : 128 kb/s
Channel(s)                               : 2 channels
Sampling rate                            : 48.0 kHz
Compression mode                         : Lossy
Stream size                              : 79.7 MiB (5%)
Alignment                                : Aligned on interleaves
Interleave, duration                     : 40  ms (1.00 video frame)
Interleave, preload duration             : 504  ms
Writing library                          : LAME3.99r
Encoding settings                        : -m s -V 4 -q 0 -lowpass 17 -b 128

Miniatyura

- © Template by MRLG
Profil ShX

Rico_Bek

Jins:
Yigit
Staj:
1 yil 2 oy
Xabarlar:
125

Qayerdan: Andijon

Taqiq:

MRLG, Raxmat.
55775:10.5.169.29

Mavzu yaratish 08-Apr-2018 10:51 (8 soat o‘tgach)

Iqitibos

Profil ShX
Xabarlarni ko‘rsatish:    

Hozirgi vaqt: 11-Dek 20:37

Vaqtlar farqi: UTC + 5



Siz mavzu yaratishingiz mumkin emas
Siz xabarlarga javob qaytarishingiz mumkin emas
Siz o‘z xabarlaringizni tahrirlashingiz mumkin emas
Siz o‘z xabarlaringizni o‘chirishingiz mumkin emas
Siz so‘rovlarda ovoz berishingiz mumkin emas
Siz xabalarga fayllarni biriktirishingiz mumkin emas
Siz fayllarni ko‘chirishingiz mumkin emas