˂
˃
 

MRLG ®

Jins:
Yigit
Staj:
1 yil 3 oy
Xabarlar:
526
Taqiq:

Omadsizlar / Безбашенные / Renegades -««5 Dengiz mushuklari. 300 $ millionga teng oltin. 1 bajarilmagan topshiriq»»- -
Chiqqan yili: 2017
Davlat: Fransiya, Germaniya
Janr: Jangari, Triller
Davomiyligi: 01:45:36
Tarjima: To'liq dublyaj [Rus tilida] + O'zbek tilida- Rejissiyor: Stiven Kueyl / Steven Quale- Rollarda:
-Dj.K. Simmons (Levin), Charli Byuli (Stanton Baker), Sallivan Steplton (Matt Barnes), Yuen Bremner (Jim Rainey), Silviya Xuks (Lara Simic), Djoshua Genri (Ben Moran), Mark Xodapp (Nato Guard Sergeant Cosme), Marko Paradzik (Partisan), Diarmed Myorta (Kurt Duffy), Dimitriy Leonidas (Jack Porter), Alen Blajevich (Boris), Karim Sherif (Milenko)- Tavsif:
Bosna urushida ko'lning pastki qismidan dengiz AQSH maxsus kuchlari 300 million dollardan ziyod qimmatbaho xazinani topib, qasamni buzishadi. Hayotini xavf ostiga qo'ygan jamoaning vazifasi ko'l tubidan oltinni ko'tarishdir. Boshqalar uchun bu bajarib bo'lmas edi, lekin bu jamoa bolalari uchun emas: ularning rejalarini bajarish uchun 10 soat vaqti bor.-Dunyodagi primierasi: 2017 - yil 1 sentyabr
КиноПоиск: 5.469 (892)
IMDb: 5.60 (630)- Sifat: WEB-DLRip
Format: AVI
Video: XviD, 720x304 (2.35:1), 1586 kbps, 23,976 fps, 0,302 bpp
Audio №1: AC3 / 5.1 / 48 kHz / 384 kbps / | Professional to'liq dublyaj (Rus tilida)
Audio №2: MP3 / 2.0 / 48 kHz / 128 kbps / | Professional ko'p ovozli kadr ortidan (O'zbek tilida) MY5-

Media Info

General
Complete name                            : D:\Кино\Tarjima filmlar\Omadsizlar (2017) Rus + Uzb (MRLG).avi
Format                                   : AVI
Format/Info                              : Audio Video Interleave
File size                                : 1.56 GiB
Duration                                 : 1 h 45 min
Overall bit rate                         : 2 113 kb/s
Writing application                      : VirtualDubMod 1.5.10.3 (build 2550/release)
Writing library                          : VirtualDubMod build 2550/release
Video
ID                                       : 0
Format                                   : MPEG-4 Visual
Format profile                           : Advanced Simple@L5
Format settings, BVOP                    : 1
Format settings, QPel                    : No
Format settings, GMC                     : No warppoints
Format settings, Matrix                  : Custom
Codec ID                                 : XVID
Codec ID/Hint                            : XviD
Duration                                 : 1 h 45 min
Bit rate                                 : 1 587 kb/s
Width                                    : 720 pixels
Height                                   : 304 pixels
Display aspect ratio                     : 2.35:1
Frame rate                               : 23.976 (24000/1001) FPS
Color space                              : YUV
Chroma subsampling                       : 4:2:0
Bit depth                                : 8 bits
Scan type                                : Progressive
Compression mode                         : Lossy
Bits/(Pixel*Frame)                       : 0.302
Stream size                              : 1.17 GiB (75%)
Writing library                          : XviD 73
Audio #1
ID                                       : 1
Format                                   : AC-3
Format/Info                              : Audio Coding 3
Mode extension                           : CM (complete main)
Format settings, Endianness              : Big
Codec ID                                 : 2000
Duration                                 : 1 h 45 min
Bit rate mode                            : Constant
Bit rate                                 : 384 kb/s
Channel(s)                               : 6 channels
Channel positions                        : Front: L C R, Side: L R, LFE
Sampling rate                            : 48.0 kHz
Frame rate                               : 31.250 FPS (1536 spf)
Compression mode                         : Lossy
Stream size                              : 290 MiB (18%)
Alignment                                : Split accross interleaves
Interleave, duration                     : 42  ms (1.00 video frame)
Interleave, preload duration             : 500  ms
Audio #2
ID                                       : 2
Format                                   : MPEG Audio
Format version                           : Version 1
Format profile                           : Layer 3
Mode                                     : Joint stereo
Mode extension                           : MS Stereo
Codec ID                                 : 55
Codec ID/Hint                            : MP3
Duration                                 : 1 h 45 min
Bit rate mode                            : Constant
Bit rate                                 : 128 kb/s
Channel(s)                               : 2 channels
Sampling rate                            : 48.0 kHz
Compression mode                         : Lossy
Stream size                              : 96.7 MiB (6%)
Alignment                                : Aligned on interleaves
Interleave, duration                     : 42  ms (1.00 video frame)
Interleave, preload duration             : 504  ms
Writing library                          : LAME3.100Є

Miniatyura

SKRINSHOTLAR
- © Template by MRLG
Profil ShX

N.U.R.I.K.B.E.K

Jins:
Yigit
Staj:
1 yil 1 oy
Xabarlar:
340

Qayerdan: Jizzax. Paxtakor

Taqiq:

народ тередо урнатилар раздача бумаяпти

Mavzu yaratish 23-Fev-2018 12:54 (14 kun o‘tgach)

Iqitibos

Profil ShX

N.U.R.I.K.B.E.K

Jins:
Yigit
Staj:
1 yil 1 oy
Xabarlar:
340

Qayerdan: Jizzax. Paxtakor

Taqiq:

MRLG, рахмат кетвоти енди

MRLGdan ma`lumot


Trekerda habar qoldirganda o'zbek tilida yozing va lotin alifbosidan foydalaning!

Mavzu yaratish 23-Fev-2018 14:15 (1 soat 20 daqiqa o‘tgach)

Iqitibos

Profil ShX
Xabarlarni ko‘rsatish:    

Hozirgi vaqt: 11-Dek 20:34

Vaqtlar farqi: UTC + 5



Siz mavzu yaratishingiz mumkin emas
Siz xabarlarga javob qaytarishingiz mumkin emas
Siz o‘z xabarlaringizni tahrirlashingiz mumkin emas
Siz o‘z xabarlaringizni o‘chirishingiz mumkin emas
Siz so‘rovlarda ovoz berishingiz mumkin emas
Siz xabalarga fayllarni biriktirishingiz mumkin emas
Siz fayllarni ko‘chirishingiz mumkin emas