Tarqatmalar statistikasi
Yoʻq
 
     
 
 

Gr@nd ®

Jins:
Yigit
Staj:
11 oy 23 kun
Xabarlar:
150

Qayerdan: Jizzax Forish

Taqiq:

-Oramizdagi Tog'lar | Между нами горы / The Mountain Between Us- Davlat: AQSH
Janr: Jangari, trillеr, drama, mеlodrama, sarguzasht
Chiqqan yili: 2017
Davomiyligi: 01:51:49-Tarjima: Professional (dublyaj qilingan) O'zbek tilida-Rejissiyor: Xani Abu-Assad-Rollarda: Idris Elba, Kеyt Uinslеt, Bo Bridjеs, Dеrmot Malruni, Linda Sorеnson, Vinsеnt Geyl, Marsi T. Xaus, Li Madjdub, Andrеs Djozеf-Tavsif: Men va Aleks, samolyot halokatidan omon qolganlar uzoq qorli tog'larning o'ta yamon va qo'rqinchli sharoitida omon qolish uchun umumiy til topishlari kerak. Hech kim ularning yordamiga kelishini bilmasdan, ular yuzlab kilometr uzunlikdagi xavfli yo'lni bosib o'tishga majbur. Kecha noma'lum ikkita musofir o'rtasidagi hayot uchun kurashda kutilmagan yirtqich mavjudlarga duch kelishadi.-Videoning sifati: BDRip
Format: MKV-Video: Xvid 720x304 23.976fps 1 376 Kbps
Audio: Dolby AC3 48000Hz / 6ch / 448 kbps Rus
Audio: MP3 48000Hz / 2ch / 128kbps Uzb

MediaInfo

General
Unique ID : 228310062602481571019173395673776334790 (0xABC2EB2A7D94CD3C8C984EEBE15327C6)
Format : Matroska
Format version : Version 4 / Version 2
File size : 1.50 GiB
Duration : 1h 51mn
Overall bit rate : 1 927 Kbps
Movie name : Xusan_Gr@nd
Encoded date : UTC 2018-01-06 16:15:24
Writing application : mkvmerge v6.8.0 ('Theme for Great Cities') 64bit built on Mar 2 2014 21:34:26
Writing library : libebml v1.3.0 + libmatroska v1.4.1
Video
ID : 1
Format : MPEG-4 Visual
Format profile : Advanced Simple@L5
Format settings, BVOP : Yes
Format settings, QPel : No
Format settings, GMC : No warppoints
Format settings, Matrix : Custom
Codec ID : XVID
Codec ID/Hint : XviD
Duration : 1h 51mn
Bit rate : 1 376 Kbps
Width : 720 pixels
Height : 304 pixels
Display aspect ratio : 2.35:1
Frame rate : 23.976 fps
Color space : YUV
Chroma subsampling : 4:2:0
Bit depth : 8 bits
Scan type : Progressive
Compression mode : Lossy
Bits/(Pixel*Frame) : 0.262
Stream size : 1.08 GiB (71%)
Writing library : XviD 73
Default : Yes
Forced : No
Audio #1
ID : 2
Format : AC-3
Format/Info : Audio Coding 3
Mode extension : CM (complete main)
Format settings, Endianness : Big
Codec ID : A_AC3
Duration : 1h 51mn
Bit rate mode : Constant
Bit rate : 384 Kbps
Channel(s) : 6 channels
Channel positions : Front: L C R, Side: L R, LFE
Sampling rate : 48.0 KHz
Bit depth : 16 bits
Compression mode : Lossy
Stream size : 307 MiB (20%)
Default : Yes
Forced : No
Audio #2
ID : 3
Format : MPEG Audio
Format version : Version 1
Format profile : Layer 3
Mode : Joint stereo
Mode extension : MS Stereo
Codec ID : A_MPEG/L3
Codec ID/Hint : MP3
Duration : 1h 51mn
Bit rate mode : Constant
Bit rate : 128 Kbps
Channel(s) : 2 channels
Sampling rate : 44.1 KHz
Compression mode : Lossy
Stream size : 102 MiB (7%)
Title : Xusan_Gr@nd
Writing library : LAME3.98.2
Language : Uzbek
Default : No
Forced : No
--
Profil ShX
Xabarlarni ko‘rsatish:    

Hozirgi vaqt: 19-Sen 12:40

Vaqtlar farqi: UTC + 5



Siz mavzu yaratishingiz mumkin emas
Siz xabarlarga javob qaytarishingiz mumkin emas
Siz o‘z xabarlaringizni tahrirlashingiz mumkin emas
Siz o‘z xabarlaringizni o‘chirishingiz mumkin emas
Siz so‘rovlarda ovoz berishingiz mumkin emas
Siz xabalarga fayllarni biriktirishingiz mumkin emas
Siz fayllarni ko‘chirishingiz mumkin emas