Tarqatmalar statistikasi
Yoʻq
 
     
 
 

Vampire_1987 ®

Jins:
Ko‘rsatilmagan
Staj:
1 yil
Xabarlar:
114
Taqiq:

--O'rgimchak odam: Uyga Qaytish | Spider-Man: Homecoming-- Davlat: AQSH
Janr: Fantastika, jangari, sarguzasht
Chiqqan yili: 2017
Davomiyligi: 02:05:31
Tarjima: Dublyaj (Professional)
Tarjima haqida qo'shimcha ma'lumot: MY5-TV--Rejissiyor: Djon Uotts--Rollarda: Tom Xolland (II), Robert Dauni ml., Maykl Kiton, Marisa Tomey, Djon Favro, Djeykob Batalon, Zendeya, Lora Xerrier, Toni Revolori, Donald Glover--Описание: После исторической встречи с командой Мстителей Питер Паркер возвращается домой, стараясь зажить обычной жизнью под опекой своей тёти Мэй. Но теперь за Питером приглядывает ещё кое-что… Тони Старк видел Человека-Паука в деле и должен стать его наставником. Когда новый злодей Стервятник угрожает уничтожить всё, что дорого Питеру, приходит время доказать всем, что такое настоящий супергерой.--Sifat: TVRip
Format: AVI
Video: XviD 640x264 25fps 648kbps
Audio: MP3 48000Hz stereo 128kbps----

MediaInfo

General
Complete name : F:\TARJIMA TV\TV_ Go\O'rgimchak Odam Uyiga Qaytdi.avi
Format : AVI
Format/Info : Audio Video Interleave
File size : 706 MiB
Duration : 2 h 5 min
Overall bit rate : 786 kb/s
Writing application : VirtualDubMod 1.5.10.3 | www.virtualdub-fr.org || (build 2550/release)
Writing library : VirtualDubMod build 2550/release
Video
ID : 0
Format : MPEG-4 Visual
Format profile : Advanced Simple@L5
Format settings, BVOP : 1
Format settings, QPel : No
Format settings, GMC : No warppoints
Format settings, Matrix : Default (H.263)
Codec ID : XVID
Codec ID/Hint : XviD
Duration : 2 h 5 min
Bit rate : 649 kb/s
Width : 640 pixels
Height : 264 pixels
Display aspect ratio : 2.40:1
Frame rate : 25.000 FPS
Color space : YUV
Chroma subsampling : 4:2:0
Bit depth : 8 bits
Scan type : Progressive
Compression mode : Lossy
Bits/(Pixel*Frame) : 0.154
Stream size : 582 MiB (82%)
Writing library : XviD 73
Audio
ID : 1
Format : MPEG Audio
Format version : Version 1
Format profile : Layer 3
Codec ID : 55
Codec ID/Hint : MP3
Duration : 2 h 5 min
Bit rate mode : Constant
Bit rate : 128 kb/s
Channel(s) : 2 channels
Sampling rate : 48.0 kHz
Compression mode : Lossy
Stream size : 115 MiB (16%)
Alignment : Aligned on interleaves
Interleave, duration : 40 ms (1.00 video frame)
Interleave, preload duration : 504 ms
Writing library : LAME3.99r
Encoding settings : -m s -V 4 -q 0 -lowpass 17 -b 128
Profil ShX

Gr@nd

Jins:
Yigit
Staj:
11 oy 25 kun
Xabarlar:
150

Qayerdan: Jizzax Forish

Taqiq:

Nega yuklash tugmasi bosilmayapti

Mavzu yaratish 02-Okt-2017 21:40 (9 soat o‘tgach)

Iqitibos

Profil ShX

Frozen

Jins:
Yigit
Staj:
1 yil 1 oy
Xabarlar:
58

Qayerdan: Toshkent, Navoi

Taqiq:

Gr@nd, Chunki tekshiruvda edi

Mavzu yaratish 03-Okt-2017 00:26 (2 soat 45 daqiqa o‘tgach)

Iqitibos

Profil ShX

MRLG

Jins:
Yigit
Staj:
1 yil 1 oy
Xabarlar:
465
Taqiq:

Vampire_1987, Mani qiziqtragan narsa. nega Sifat: TVRip ? agar film TVdan togridan to`g`ri ko`chirib olingan bo`lsa. nega usha TVni logotipi yuq?

Mavzu yaratish 03-Okt-2017 09:29 (9 soat o‘tgach)

Iqitibos

Profil ShX

Jamik

Jins:
Ko‘rsatilmagan
Staj:
1 yil
Xabarlar:
14
Taqiq:

Nega 96% tuxtab qoldi???? tushunmadim

Mavzu yaratish 05-Okt-2017 10:38 (2 kun 1 soat o‘tgach)

Iqitibos

Profil ShX

vuelta

Jins:
Yigit
Staj:
1 yil 1 oy
Xabarlar:
294
Taqiq:

Vampire 96 foiz gacha razdacha qilgan keyin yana razdacha qilsa 100 % buladi

Mavzu yaratish 05-Okt-2017 12:05 (1 soat 27 daqiqa o‘tgach)

Iqitibos

Profil ShX

Jamik

Jins:
Ko‘rsatilmagan
Staj:
1 yil
Xabarlar:
14
Taqiq:

250Vampire 96 foiz gacha razdacha qilgan keyin yana razdacha qilsa 100 % buladi
qani u Vampir???

Mavzu yaratish 05-Okt-2017 12:06 (1 daqiqa o‘tgach)

Iqitibos

Profil ShX

vuelta

Jins:
Yigit
Staj:
1 yil 1 oy
Xabarlar:
294
Taqiq:

Kompyuterini yoqsa razdacha beradi

Mavzu yaratish 05-Okt-2017 12:14 (7 daqiqa o‘tgach)

Iqitibos

Profil ShX

Jamik

Jins:
Ko‘rsatilmagan
Staj:
1 yil
Xabarlar:
14
Taqiq:

Vampire_1987, Tezlik ber 96 % tuxtab qoldiyu

Mavzu yaratish 05-Okt-2017 12:17 (3 daqiqa o‘tgach)

Iqitibos

Profil ShX

MRLG

Jins:
Yigit
Staj:
1 yil 1 oy
Xabarlar:
465
Taqiq:

Ovozini tiniqligi qanaqa ekan-a. Man boshqa saytdan kochirgandim, ovozi yoqmadi. Konverterda siqilgani sababli ovozida pomex bor ekan.

Mavzu yaratish 05-Okt-2017 12:29 (11 daqiqa o‘tgach)

Iqitibos

Profil ShX

Vampire_1987 ®

Jins:
Ko‘rsatilmagan
Staj:
1 yil
Xabarlar:
114
Taqiq:

257Ovozini tiniqligi qanaqa ekan-a. Man boshqa saytdan kochirgandim, ovozi yoqmadi. Konverterda siqilgani sababli ovozida pomex bor ekan.
Dostim ) Juda Yaxshi Huddi MY-5 da Korib Otirgandek Tiniq >..

Mavzu yaratish 05-Okt-2017 16:46 (4 soat o‘tgach)

Iqitibos

Profil ShX

Frozen

Jins:
Yigit
Staj:
1 yil 1 oy
Xabarlar:
58

Qayerdan: Toshkent, Navoi

Taqiq:

Hech bergiz kemayaptida shu kinoni 96 foiz da toxtatib qoydiz bs

Mavzu yaratish 05-Okt-2017 17:30 (44 daqiqa o‘tgach)

Iqitibos

Profil ShX

Jamik

Jins:
Ko‘rsatilmagan
Staj:
1 yil
Xabarlar:
14
Taqiq:

261Hech bergiz kemayaptida shu kinoni 96 foiz da toxtatib qoydiz bs
menda ham 96% tuxtab qoldi

Mavzu yaratish 05-Okt-2017 22:11 (4 soat o‘tgach)

Iqitibos

Profil ShX

nuriddin2012

Jins:
Ko‘rsatilmagan
Staj:
11 oy
Xabarlar:
2
Taqiq:

skrinshotlar umuman tvrip sifatiga toʻgʻri kelmaydi tvrip bunchali tiniq boʻmaydi tvni logotipiyam yoʻq

Mavzu yaratish 20-Okt-2017 14:25 (14 kun o‘tgach)

Iqitibos

Profil ShX

Vampire_1987 ®

Jins:
Ko‘rsatilmagan
Staj:
1 yil
Xabarlar:
114
Taqiq:

543skrinshotlar umuman tvrip sifatiga toʻgʻri kelmaydi tvrip bunchali tiniq boʻmaydi tvni logotipiyam yoʻq

Mavzu yaratish 20-Okt-2017 15:06 (40 daqiqa o‘tgach)

Iqitibos

Profil ShX
Xabarlarni ko‘rsatish:    

Hozirgi vaqt: 21-Sen 11:15

Vaqtlar farqi: UTC + 5



Siz mavzu yaratishingiz mumkin emas
Siz xabarlarga javob qaytarishingiz mumkin emas
Siz o‘z xabarlaringizni tahrirlashingiz mumkin emas
Siz o‘z xabarlaringizni o‘chirishingiz mumkin emas
Siz so‘rovlarda ovoz berishingiz mumkin emas
Siz xabalarga fayllarni biriktirishingiz mumkin emas
Siz fayllarni ko‘chirishingiz mumkin emas