˂
˃
Tarqatmalar statistikasi
Ko‘chirib bo‘ldim: [ 9 ]
 
     
 
 

MRLG ®

Jins:
Yigit
Staj:
1 yil 2 oy
Xabarlar:
522
Taqiq:

-O'rgimchak odam: Uyga qaytish / Человек-паук: Возвращение домой / Spider-Man: Homecoming«Homework can wait. The city can't»-
MA'LUMOT:
    Chiqqan yili: 2017
    Davlat: AQSH
    Janr: fantastika, jangari, sarguzasht

    Davomiyligi: 02:13:28
    Tarjima:
    • Professional (To'liq dublyaj) [iTunes] + MY5 + YoshlarTV
    -Rejissiyor: Jon Uotts / Jon Watts
-ROLLARDA:

    Tom Xolland, Kichkintoy Robert Dauni, Maykl Kiton, Marisa Tomey, Djon Favro, Djeykob Batalon, Zendeya, Lora Xerriyer, Toni Revolori, Donald Glover, Gvinet Peltrou, Bokim Vudbayn
-TAVSIF:
    Qasoskorlar bilan bo'lgan tarixiy uchrashuvdan keyin Piter Parker uyiga qaytib, uning xolasi Mayning g'amxo'rligi ostida oddiy hayot kechirishga harakat qilmoqda. Endi esa Piter Parkerga boshqa bir kishi ko'z tashlamoqda ... Toni Stark ishda o'rgimchak odamni ko'rdi va uning maslahatchisi bo'lishi kerak edi. Yangi yovuz O'laksaxo'r hamma narsani yo'q qilish bilan tahdid qilganda, Piter Parker hammaga haqiqiy super qahramon ekanligini isbotlash vaqti keladi.-КиноПоиск: 7.026 (66 417)
    IMDb: 7.60 (237 984)-Sifat: BDRip
    Format: AVI
    Video: XviD 720x304 (2.35:1) 1366 kbps 23,976 fps 0,260 bpp
    Audio №1: MP3 / 2.0 / 48 kHz / 128 kbps | MY5 | O'zbek tilida (Ko'p ovozli, kadr ortidan)
    Audio №2: MP3 / 2.0 / 48 kHz / 128 kbps | Yoshlar | O'zbek tilida (Ko'p ovozli, kadr ortidan)
    Audio №3: AC3 / 2.0 / 48 kHz / 192 kbps | iTunes Russia | Rus tilida (To'liq dublyaj)-

MI

General
Complete name                            : O'rgimchak Odam. Uyga qaytish (2017 - BDRip).avi
Format                                   : AVI
Format/Info                              : Audio Video Interleave
File size                                : 1.71 GiB
Duration                                 : 2 h 13 min
Overall bit rate                         : 1 834 kb/s
Writing application                      : VirtualDubMod 1.5.10.3 (build 2550/release)
Writing library                          : VirtualDubMod build 2550/release
Video
ID                                       : 0
Format                                   : MPEG-4 Visual
Format profile                           : Advanced Simple@L5
Format settings, BVOP                    : 1
Format settings, QPel                    : No
Format settings, GMC                     : No warppoints
Format settings, Matrix                  : Custom
Codec ID                                 : XVID
Codec ID/Hint                            : XviD
Duration                                 : 2 h 13 min
Bit rate                                 : 1 367 kb/s
Width                                    : 720 pixels
Height                                   : 304 pixels
Display aspect ratio                     : 2.35:1
Frame rate                               : 23.976 (24000/1001) FPS
Color space                              : YUV
Chroma subsampling                       : 4:2:0
Bit depth                                : 8 bits
Scan type                                : Progressive
Compression mode                         : Lossy
Bits/(Pixel*Frame)                       : 0.260
Stream size                              : 1.27 GiB (75%)
Writing library                          : XviD 73
Audio #1
ID                                       : 1
Format                                   : MPEG Audio
Format version                           : Version 1
Format profile                           : Layer 3
Codec ID                                 : 55
Codec ID/Hint                            : MP3
Duration                                 : 2 h 13 min
Bit rate mode                            : Constant
Bit rate                                 : 128 kb/s
Channel(s)                               : 2 channels
Sampling rate                            : 48.0 kHz
Compression mode                         : Lossy
Stream size                              : 122 MiB (7%)
Alignment                                : Aligned on interleaves
Interleave, duration                     : 42  ms (1.00 video frame)
Interleave, preload duration             : 504  ms
Writing library                          : LAME3.99r
Encoding settings                        : -m s -V 4 -q 0 -lowpass 17 -b 128
Audio #2
ID                                       : 2
Format                                   : MPEG Audio
Format version                           : Version 1
Format profile                           : Layer 3
Codec ID                                 : 55
Codec ID/Hint                            : MP3
Duration                                 : 2 h 13 min
Bit rate mode                            : Constant
Bit rate                                 : 128 kb/s
Channel(s)                               : 2 channels
Sampling rate                            : 48.0 kHz
Compression mode                         : Lossy
Stream size                              : 122 MiB (7%)
Alignment                                : Aligned on interleaves
Interleave, duration                     : 42  ms (1.00 video frame)
Interleave, preload duration             : 504  ms
Writing library                          : LAME3.99r
Encoding settings                        : -m s -V 4 -q 0 -lowpass 17 -b 128
Audio #3
ID                                       : 3
Format                                   : AC-3
Format/Info                              : Audio Coding 3
Mode extension                           : CM (complete main)
Format settings, Endianness              : Big
Codec ID                                 : 2000
Duration                                 : 2 h 13 min
Bit rate mode                            : Constant
Bit rate                                 : 192 kb/s
Channel(s)                               : 2 channels
Channel positions                        : Front: L R
Sampling rate                            : 48.0 kHz
Frame rate                               : 31.250 FPS (1536 spf)
Compression mode                         : Lossy
Stream size                              : 183 MiB (10%)
Alignment                                : Split accross interleaves
Interleave, duration                     : 42  ms (1.00 video frame)
Interleave, preload duration             : 500  ms

Miniatyura

FILMDAN LAVHALAR
Profil ShX

MRLG ®

Jins:
Yigit
Staj:
1 yil 2 oy
Xabarlar:
522
Taqiq:

4-5 Gblik darajada sifatli bo'lmasada zato 2 xil o'zbekcha ovozga ega reliz :)

Mavzu yaratish 09-Dek-2017 12:57 (1 daqiqa o‘tgach)

Iqitibos

Profil ShX

Frozen

Jins:
Yigit
Staj:
1 yil 2 oy
Xabarlar:
58

Qayerdan: Toshkent, Navoi

Taqiq:

Relizga gap yuq, Yoshlarga teng keladigani yo tarjima boyicha

Mavzu yaratish 09-Dek-2017 13:57 (1 soat o‘tgach)

Iqitibos

Profil ShX

begzod

Jins:
Ko‘rsatilmagan
Staj:
11 oy 12 kun
Xabarlar:
2
Taqiq:

qanday tarqatiladi shuni o'rgatib yuborilar

Mavzu yaratish 10-Dek-2017 11:29 (21 soat o‘tgach)

Iqitibos

Profil ShX

MRLG ®

Jins:
Yigit
Staj:
1 yil 2 oy
Xabarlar:
522
Taqiq:

begzod, utorrent dasturi orqali ko'chirib olasiz, keyin shu dasturni o'zida tarqatasiz.

Mavzu yaratish 10-Dek-2017 16:37 (5 soat o‘tgach)

Iqitibos

Profil ShX
Xabarlarni ko‘rsatish:    

Hozirgi vaqt: 15-Noy 11:21

Vaqtlar farqi: UTC + 5



Siz mavzu yaratishingiz mumkin emas
Siz xabarlarga javob qaytarishingiz mumkin emas
Siz o‘z xabarlaringizni tahrirlashingiz mumkin emas
Siz o‘z xabarlaringizni o‘chirishingiz mumkin emas
Siz so‘rovlarda ovoz berishingiz mumkin emas
Siz xabalarga fayllarni biriktirishingiz mumkin emas
Siz fayllarni ko‘chirishingiz mumkin emas