˂
˃
Tarqatmalar statistikasi
Ko‘chiraman: [ 1 ]
Ko‘chirmoqdaman: [ 9 ]
Ko‘chirib bo‘ldim: [ 15 ]
 
     
 
 

rameo1988 ®

Jins:
Yigit
Staj:
1 oy 9 kun
Xabarlar:
50

Qayerdan: Tashkent

Taqiq:

- -O'ta Havfli | Особо опасен | Wanted- -Chiqqan yili: 2008
Davlat: AQSH, Germaniya
Janr: Jangari, Sarguzasht, Fantastik, Jinoyatchilik.
Davomiyligi: 01:49:53
Tarjima 1: Professional (Ko'p ovozli kadr ortidan) O'zbek Tilida
Tarjima 2: Professional (dublyaj qilingan) Rus Tilida
Tarjima 3: Professional (dublyaj Original) Eng Tilida
Subtitrlar: Ruscha (to'liq), inglizcha (Full).-Rejissyor: Timur Bekmambetov

Rollarda: James McAvoy-(Wesley), Angelina Jolie-(Fox), Morgan Freeman-(Sloan), Terence Stamp-(Pekwarsky), Thomas Kretschmann-(Cross), Common-(Gunsmith), David Patrick-(Mr. X), Chris Pratt-(Barry), Marc Warren-(Repairman), Dato Bakhtadze-(Butcher).-Tavsif: Ko'p asirlar muqaddam, o'quvchilar jamiyati dunyo muazanatini buzadigonlarni o'ldirish maqsadida, maxfiy guruhni yaratishdi, ular o'zini Qardoshlar dip atashdi.
Wesley Gibson - butun kunni ofisda yurgan holda o'tadi. Bossi uni kamsitadi, qiz do'sti uni aldaydi. U erta bolalikda uni tark etgan otasi vahshiyona o'ldirilganligini aniqlash uchun Wes "Qardoshlar" deb nomlangan yashirin qotil jamiyatiga jalb qilingan. Tajribali murabbiy Fox, mashg'ulotlarini olib boradi va tezkor reaktsiyani va g'ayritabiiy tezlikni rivojlantiradi. Wesley Gibson - Otasi "Qardoshlar" guruxi tomonidan yo'q qilinganligini bilmaydi va uni otasiga qarama qarshi tayyorlashadi...-Reytingt:
-Videoning sifati: BDRip 1080p
Video format: MKV
Video: AVC, (1920x1080) 23,976 fps, 8 827 Kbps
Audio 1: MP3 / 44.1Hz stereo 2.0ch / 224 kbps / O'zbek tilida
Audio 2: DTS / 48Hz stereo 5.1ch / 755 Kbps / Rus tilida
Audio 3: DTS / 48Hz stereo 5.1ch / 1 510 Kbps / Eng tilida
-

Media Info

D:\HD\Osobo-opasen.1080p.mkv
General
Unique ID : 225061209971510718734091025316388753 (0x2B585FD65628E9BCA24F9D3D011F91)
Complete name : D:\HD\Osobo-opasen.1080p.mkv
Format : Matroska
Format version : Version 4 / Version 2
File size : 8.70 GiB
Duration : 1h 50mn
Overall bit rate : 11.3 Mbps
Encoded date : UTC 2018-12-30 11:55:11
Writing application : mkvmerge v29.0.0 ('Like It Or Not') 64-bit
Writing library : libebml v1.3.6 + libmatroska v1.4.9
DURATION : 01:49:52.705000000
NUMBER_OF_FRAMES : 252377
NUMBER_OF_BYTES : 184595749
_STATISTICS_WRITING_APP : mkvmerge v29.0.0 ('Like It Or Not') 64-bit
_STATISTICS_WRITING_DATE_UTC : 2018-12-30 11:55:11
_STATISTICS_TAGS : BPS DURATION NUMBER_OF_FRAMES NUMBER_OF_BYTES
Video #1
ID : 1
Format : AVC
Format/Info : Advanced Video Codec
Format profile : High@L4.1
Format settings, CABAC : Yes
Format settings, ReFrames : 5 frames
Codec ID : V_MPEG4/ISO/AVC
Duration : 1h 50mn
Bit rate : 8 827 Kbps
Width : 1 920 pixels
Height: 1 080 pixels
Display aspect ratio : 2.35:1
Frame rate : 23.976 fps
Color space : YUV
Chroma subsampling : 4:2:0
Bit depth : 8 bits
Scan type : Progressive
Bits/(Pixel*Frame) : 0.235
Stream size : 6.61 GiB (76%)
Title : Wanted - HQF
Writing library : x264 core 65 r1028 83baa7f
Encoding settings : cabac=1 / ref=5 / deblock=1:0:0 / analyse=0x3:0x133 / me=umh / subme=7 / psy_rd=1.0:0.0 / mixed_ref=1 / me_range=16 / chroma_me=1 / trellis=1 / 8x8dct=1 / cqm=0 / deadzone=21,11 / chroma_qp_offset=-2 / threads=6 / nr=0 / decimate=1 / mbaff=0 / bframes=3 / b_pyramid=1 / b_adapt=1 / b_bias=0 / direct=1 / wpredb=1 / keyint=250 / keyint_min=25 / scenecut=40(pre) / rc=2pass / bitrate=8827 / ratetol=1.0 / qcomp=0.60 / qpmin=10 / qpmax=51 / qpstep=4 / cplxblur=20.0 / qblur=0.5 / ip_ratio=1.40 / pb_ratio=1.30 / aq=1:1.00
Language : English
Default : Yes
Forced : No
DURATION : 01:50:00.480000000
NUMBER_OF_FRAMES : 158253
NUMBER_OF_BYTES : 7281233168
_STATISTICS_WRITING_APP : mkvmerge v29.0.0 ('Like It Or Not') 64-bit
_STATISTICS_WRITING_DATE_UTC : 2018-12-30 11:55:11
_STATISTICS_TAGS : BPS DURATION NUMBER_OF_FRAMES NUMBER_OF_BYTES
Audio #2
ID : 2
Format : MPEG Audio
Format version : Version 1
Format profile : Layer 2
Codec ID : A_MPEG/L2
Codec ID/Hint : MP2
Duration : 1h 50mn
Bit rate mode : Constant
Bit rate : 224 Kbps
Channel(s) : 2 channels
Sampling rate : 44.1 KHz
Compression mode : Lossy
Stream size : 176 MiB (2%)
Title : Uzbek (by ZET)
Language : Uzbek
Default : No
Forced : No
Audio #3
ID : 3
Format : DTS
Format/Info : Digital Theater Systems
Codec ID : A_DTS
Duration : 1h 50mn
Bit rate mode : Constant
Bit rate : 755 Kbps
Channel(s) : 6 channels
Channel positions : Front: L C R, Side: L R, LFE
Sampling rate : 48.0 KHz
Bit depth : 24 bits
Compression mode : Lossy
Stream size : 594 MiB (7%)
Title : Russian
Language : Russian
Default : Yes
Forced : No
Audio #4
ID : 4
Format : DTS
Format/Info : Digital Theater Systems
Codec ID : A_DTS
Duration : 1h 50mn
Bit rate mode : Constant
Bit rate : 1 510 Kbps
Channel(s) : 6 channels
Channel positions : Front: L C R, Side: L R, LFE
Sampling rate : 48.0 KHz
Bit depth : 24 bits
Compression mode : Lossy
Stream size : 1.16 GiB (13%)
Title : English
Language : English
Default : No
Forced : No
Text #5
ID : 5
Format : UTF-8
Codec ID : S_TEXT/UTF8
Codec ID/Info : UTF-8 Plain Text
Title : Forsed
Language : Russian
Default : Yes
Forced : No
Text #6
ID : 6
Format : UTF-8
Codec ID : S_TEXT/UTF8
Codec ID/Info : UTF-8 Plain Text
Language : Russian
Default : No
Forced : No
Text #7
ID : 7
Format : UTF-8
Codec ID : S_TEXT/UTF8
Codec ID/Info : UTF-8 Plain Text
Language : English
Default : No
Forced : No



So‘ngi marta tahrirlandi: rameo1988 (2018-12-30 18:11), Jami tahrirlangan 1 marta
Profil ShX

MRLG

Jins:
Yigit
Staj:
1 yil 5 oy
Xabarlar:
542
Taqiq:

Zo'r film. Tavsiya qilaman.

Mavzu yaratish 30-Dek-2018 17:57 (12 daqiqa o‘tgach)

Iqitibos

Profil ShX

rameo1988 ®

Jins:
Yigit
Staj:
1 oy 9 kun
Xabarlar:
50

Qayerdan: Tashkent

Taqiq:

MRLG, Salom Adminaka yaxshimisiz

Mavzu yaratish 30-Dek-2018 18:01 (3 daqiqa o‘tgach)

Iqitibos

Profil ShX

rameo1988 ®

Jins:
Yigit
Staj:
1 oy 9 kun
Xabarlar:
50

Qayerdan: Tashkent

Taqiq:

MRLG, MRLG etkalaride Juda Zo'r kino

Mavzu yaratish 30-Dek-2018 18:04 (2 daqiqa o‘tgach)

Iqitibos

Profil ShX

iJalol_Production

Jins:
Yigit
Staj:
9 oy 27 kun
Xabarlar:
71
Taqiq:

Sifati prosta BOMBA

Mavzu yaratish 30-Dek-2018 18:22 (17 daqiqa o‘tgach)

Iqitibos

Profil ShX

rameo1988 ®

Jins:
Yigit
Staj:
1 oy 9 kun
Xabarlar:
50

Qayerdan: Tashkent

Taqiq:

7132Sifati prosta BOMBA
xa ))) Raxmat

Mavzu yaratish 30-Dek-2018 18:27 (4 daqiqa o‘tgach)

Iqitibos

Profil ShX

Anvar26

Jins:
Yigit
Staj:
3 oy 16 kun
Xabarlar:
17
Taqiq:

Rostan ham Timur Bekmanbetovmi rejissiyor

Mavzu yaratish 30-Dek-2018 22:06 (3 soat o‘tgach)

Iqitibos

Profil ShX

Veng chun

Jins:
Ko‘rsatilmagan
Staj:
5 oy 24 kun
Xabarlar:
3
Taqiq:

SAL ORTAROQ FORMATDA YOQMI ADMIN

Mavzu yaratish 31-Dek-2018 11:25 (13 soat o‘tgach)

Iqitibos

Profil ShX

rameo1988 ®

Jins:
Yigit
Staj:
1 oy 9 kun
Xabarlar:
50

Qayerdan: Tashkent

Taqiq:

7134Rostan ham Timur Bekmanbetovmi rejissiyor
xa

Mavzu yaratish 31-Dek-2018 13:15 (1 soat 50 daqiqa o‘tgach)

Iqitibos

Profil ShX

rameo1988 ®

Jins:
Yigit
Staj:
1 oy 9 kun
Xabarlar:
50

Qayerdan: Tashkent

Taqiq:

7135SAL ORTAROQ FORMATDA YOQMI ADMIN
Bor faqat oddi HD bovuradimi

Mavzu yaratish 31-Dek-2018 13:16 (1 daqiqa o‘tgach)

Iqitibos

Profil ShX

Downloader

Jins:
Ko‘rsatilmagan
Staj:
2 oy 12 kun
Xabarlar:
10
Taqiq:

7134Rostan ham Timur Bekmanbetovmi rejissiyor
Timur Bekmambetov ajoyib rejissor. Biita kino olsa, zo'r chiqmaslikni iloji yo'q. Uni Ben-Gur degan kinosi ham zo'r chiqqan...

Mavzu yaratish 31-Dek-2018 17:57 (4 soat o‘tgach)

Iqitibos

Profil ShX

mr.azizjons

Jins:
Ko‘rsatilmagan
Staj:
3 oy 29 kun
Xabarlar:
4
Taqiq:

окажон манда загрузка тохтаб колди 86,8%да
лекин отдача ишлавотти

Mavzu yaratish 04-Yan-2019 00:07 (3 kun o‘tgach)

Iqitibos

Profil ShX

mr.azizjons

Jins:
Ko‘rsatilmagan
Staj:
3 oy 29 kun
Xabarlar:
4
Taqiq:

O'ta Havfli / Особо опасен / Wanted (Timur Bekmambetov) [2008, Jangari, Sarguzasht, Fantastik, Jinoyatchilik] [BDRip AVC 1080p]
окажон жавоб ёзин

Mavzu yaratish 04-Yan-2019 18:33 (18 soat o‘tgach)

Iqitibos

Profil ShX

MRLG

Jins:
Yigit
Staj:
1 yil 5 oy
Xabarlar:
542
Taqiq:

mr.azizjons, Okajoniz 3 kundan beri internetga kirgani yo'q. Qachon internetga kirsa ushanda tarqatadi. Kuting.

Mavzu yaratish 04-Yan-2019 19:29 (55 daqiqa o‘tgach)

Iqitibos

Profil ShX

mr.azizjons

Jins:
Ko‘rsatilmagan
Staj:
3 oy 29 kun
Xabarlar:
4
Taqiq:

O'ta Havfli / Особо опасен / Wanted (Timur Bekmambetov) [2008, Jangari, Sarguzasht, Fantastik, Jinoyatchilik] [BDRip AVC 1080p]
рахмат коттакон

Mavzu yaratish 04-Yan-2019 20:04 (35 daqiqa o‘tgach)

Iqitibos

Profil ShX
Xabarlarni ko‘rsatish:    

Hozirgi vaqt: 23-Yan 02:06

Vaqtlar farqi: UTC + 5



Siz mavzu yaratishingiz mumkin emas
Siz xabarlarga javob qaytarishingiz mumkin emas
Siz o‘z xabarlaringizni tahrirlashingiz mumkin emas
Siz o‘z xabarlaringizni o‘chirishingiz mumkin emas
Siz so‘rovlarda ovoz berishingiz mumkin emas
Siz xabalarga fayllarni biriktirishingiz mumkin emas
Siz fayllarni ko‘chirishingiz mumkin emas