Tarqatmalar statistikasi
Yoʻq
 
     
 
 

Gr@nd ®

Jins:
Yigit
Staj:
11 oy 23 kun
Xabarlar:
150

Qayerdan: Jizzax Forish

Taqiq:

-
Overdrive | Овердрайв
- -Davlat: Frantsiya, Bеlgiya, AQSH
Janr: Jangari, trillеr
Chiqqan yili: 2017
Davomiyligi: 01:33:30-Tarjima: Professional (dublyaj qilingan) O'zbek tilida-Rejissiyor: Antonio Nеgrеt-Rollarda: Skott Istvud (Andrew Foster), Frеddi Torp (Garrett Foster), Ana dе Armas (Stephanie), Gayya Uayss (Devin), Simon Abkaryan (Jacomo Morier), Klеmеns Shik (Max Klemp), Abraxam Bеlaga (Laurent Morier), Kaaris (Franck), Mars Bezot (Rolf), Magnе Brеkkе (Kuhn), Djoshua Fеtussi (Leon), Pеr-Mari Moskoni (Officer Closson)-Trеylеr: https://mover.uz/watch/ADG3syrm/-Описание: Endryu va Gareth Foster - eng kam va eng hashamatli avtomobillarni o'g'irlaydigan sarguzasht aktyorlar. Hozirgi kunga qadar ular osonlikcha muammolardan qochishgan, ammo keyingi ishda ular zolim jinoyatchi xo'jayinning nazariga tushishgan. Endi ularning hayotlari evaziga uning eng yomon dushmanining eng qimmatbaho avtomobili o'g'irlash kerak.-Videoning sifati: BDRip
Формат видео: MKV-Video: Xvid 720x304 23.976fps 1 735 Kbps
Audio: Dolby AC3 48000Hz 6ch Rus
Audio: MP3 48000Hz 2ch 128kbps Uzb
-

MediaInfo

General
Unique ID : 188366034178567405936167242582396084868 (0x8DB5FA83C28BEF1CB97FB2F4BAC9A284)
Format : Matroska
Format version : Version 4 / Version 2
File size : 1.50 GiB
Duration : 1h 33mn
Overall bit rate : 2 292 Kbps
Movie name : Xusan_Gr@nd
Encoded date : UTC 2017-11-02 17:01:53
Writing application : mkvmerge v6.8.0 ('Theme for Great Cities') 64bit built on Mar 2 2014 21:34:26
Writing library : libebml v1.3.0 + libmatroska v1.4.1
Video
ID : 1
Format : MPEG-4 Visual
Format profile : Advanced Simple@L5
Format settings, BVOP : Yes
Format settings, QPel : No
Format settings, GMC : No warppoints
Format settings, Matrix : Custom
Codec ID : XVID
Codec ID/Hint : XviD
Duration : 1h 33mn
Bit rate : 1 735 Kbps
Width : 720 pixels
Height : 304 pixels
Display aspect ratio : 2.35:1
Frame rate : 23.976 fps
Color space : YUV
Chroma subsampling : 4:2:0
Bit depth : 8 bits
Scan type : Progressive
Compression mode : Lossy
Bits/(Pixel*Frame) : 0.331
Stream size : 1.13 GiB (76%)
Writing library : XviD 73
Default : Yes
Forced : No
Audio #1
ID : 2
Format : AC-3
Format/Info : Audio Coding 3
Mode extension : CM (complete main)
Format settings, Endianness : Big
Codec ID : A_AC3
Duration : 1h 33mn
Bit rate mode : Constant
Bit rate : 384 Kbps
Channel(s) : 6 channels
Channel positions : Front: L C R, Side: L R, LFE
Sampling rate : 48.0 KHz
Bit depth : 16 bits
Compression mode : Lossy
Stream size : 257 MiB (17%)
Default : Yes
Forced : No
Audio #2
ID : 3
Format : MPEG Audio
Format version : Version 1
Format profile : Layer 3
Mode : Joint stereo
Mode extension : MS Stereo
Codec ID : A_MPEG/L3
Codec ID/Hint : MP3
Duration : 1h 33mn
Bit rate mode : Constant
Bit rate : 128 Kbps
Channel(s) : 2 channels
Sampling rate : 44.1 KHz
Compression mode : Lossy
Stream size : 85.6 MiB (6%)
Title : Xusan_Gr@nd
Writing library : LAME3.98.2
Language : Uzbek
Default : No
Forced : No


So‘ngi marta tahrirlandi: Gr@nd (2017-11-03 06:53), Jami tahrirlangan 1 marta
Profil ShX

Vampire_1987

Jins:
Ko‘rsatilmagan
Staj:
1 yil
Xabarlar:
114
Taqiq:

741Overdrive / Overdrive [2017, Frantsiya, Bеlgiya, AQSH, Jangari, trillеr, BDRip,Gr@nd] ¶
Rejisyor nomini kiritib qo'ying

Mavzu yaratish 02-Noy-2017 23:29 (35 daqiqa o‘tgach)

Iqitibos

Profil ShX

Gr@nd ®

Jins:
Yigit
Staj:
11 oy 23 kun
Xabarlar:
150

Qayerdan: Jizzax Forish

Taqiq:

Vampire_1987, Aslida ozi chiqish kerak negadir chiqmaydi

Mavzu yaratish 03-Noy-2017 06:25 (6 soat o‘tgach)

Iqitibos

Profil ShX
Xabarlarni ko‘rsatish:    

Hozirgi vaqt: 19-Sen 11:44

Vaqtlar farqi: UTC + 5



Siz mavzu yaratishingiz mumkin emas
Siz xabarlarga javob qaytarishingiz mumkin emas
Siz o‘z xabarlaringizni tahrirlashingiz mumkin emas
Siz o‘z xabarlaringizni o‘chirishingiz mumkin emas
Siz so‘rovlarda ovoz berishingiz mumkin emas
Siz xabalarga fayllarni biriktirishingiz mumkin emas
Siz fayllarni ko‘chirishingiz mumkin emas