˂
˃
Tarqatmalar statistikasi
Ko‘chirmoqdaman: [ 2 ]
Ko‘chirib bo‘ldim: [ 20 ]
 
     
 
 

N.U.R.I.K.B.E.K ®

Jins:
Yigit
Staj:
1 yil 1 oy
Xabarlar:
344

Qayerdan: Jizzax. Paxtakor

Taqiq:

--Oxirgi Brilliant | Последний Бриллиант | Le Dernier Diamant-- Chiqqan yili: 2014
Davlat: Fransiya, Lyuksenburg, Belgiya
Janr: Drama, O'g'rilik.
Davomiyligi: 01:48:37
Tarjima: Professional (dublyaj qilingan)
Tarjima #1: Professional (My5TV) O'zbek Tilida
Tarjima #2: Professional (litsenziya) Rus Tilida--Rejissyor: Erik Barbe.--Rollarda: Ivan Attal, Berenis Bejo, Jan Fransua Stevenen, Antuan Basler, Jak Spisser, Anni Kordi, Mishel Izrael, Sharli Dyupon, Danil Deni, Gene Bervuts.--Tavsif: Sobiq mahbus, dunyodagi yirik olmoslardan biri bo'lgan Florentini o'g'irlash uchun kechagi mutaxassis zargarning qizi ishonchiga kirdi. Olmasni qo'lga kiritib, taqinchoqlarni soxta qilib almashtirgan holda, firibgar olmosni sheriklariga topshiradi, uni darhol o'ldirishga urinadi. Olmos va xoin do'stlarini bir kechada yo'qotib, qahramon o'z hayotida eng qimmatbaho narsani saqlab qolishga harakat qiladi - u sevgan qiz.--Videoning sifati: HDRip
Video format: MKV--Video: Xvid 720x304 24fps 1 532 kb/s
Audio: MP3 48000Hz stereo 128kbps O'zbek Tili
Audio 2: Dolby AC3 48000Hz 6ch 384kbps Rus Tili
--

Media Info

General
Format : Matroska
Format version : Version 4
File size : 1.55 GiB
Duration : 1 h 48 min
Overall bit rate : 2 045 kb/s
Encoded date : UTC 2018-11-12 06:03:58
Writing application : mkvmerge v15.0.0 ('Duel with the Devil') 64-bit
Writing library : libebml v1.3.5 + libmatroska v1.4.5
Video
ID : 1
Format : MPEG-4 Visual
Format profile : Advanced Simple@L5
Format settings : BVOP2
Format settings, BVOP : 2
Format settings, QPel : No
Format settings, GMC : No warppoints
Format settings, Matrix : Default (MPEG)
Codec ID : V_MS/VFW/FOURCC / XVID
Codec ID/Hint : XviD
Duration : 1 h 48 min
Bit rate : 1 532 kb/s
Width : 720 pixels
Height : 304 pixels
Display aspect ratio : 2.35:1
Frame rate mode : Constant
Frame rate : 24.000 FPS
Color space : YUV
Chroma subsampling : 4:2:0
Bit depth : 8 bits
Scan type : Progressive
Compression mode : Lossy
Bits/(Pixel*Frame) : 0.292
Stream size : 1.16 GiB (75%)
Writing library : XviD 1.2.1 (UTC 2008-12-04)
Default : Yes
Forced : No
Audio #1
ID : 2
Format : MPEG Audio
Format version : Version 1
Format profile : Layer 3
Format settings : Joint stereo / MS Stereo
Codec ID : A_MPEG/L3
Codec ID/Hint : MP3
Duration : 1 h 48 min
Bit rate mode : Constant
Bit rate : 128 kb/s
Channel(s) : 2 channels
Sampling rate : 48.0 kHz
Frame rate : 41.667 FPS (1152 SPF)
Compression mode : Lossy
Stream size : 99.4 MiB (6%)
Title : O'zbek Tili
Language : Uzbek
Default : Yes
Forced : No
Audio #2
ID : 3
Format : AC-3
Format/Info : Audio Coding 3
Commercial name : Dolby Digital
Codec ID : A_AC3
Duration : 1 h 48 min
Bit rate mode : Constant
Bit rate : 384 kb/s
Channel(s) : 6 channels
Channel layout : L R C LFE Ls Rs
Sampling rate : 48.0 kHz
Frame rate : 31.250 FPS (1536 SPF)
Bit depth : 16 bits
Compression mode : Lossy
Stream size : 298 MiB (19%)
Title : Rus Tili
Language : Russian
Service kind : Complete Main
Default : No
Forced : No
LAVHALAR


So‘ngi marta tahrirlandi: N.U.R.I.K.B.E.K (2018-11-12 12:29), Jami tahrirlangan 1 marta
Profil ShX

Unofficial

Jins:
Yigit
Staj:
8 oy 21 kun
Xabarlar:
446

Qayerdan: Nukus

Taqiq:

Janr: Drama, O'g'rilik. o'g'rilik emas kriminal
tavsif: Sobiq mahbus, dunyodagi yirik olmoslardan biri bo'lgan Florentini o'g'irlash uchun kechagi mutaxassis zargarning qizi ishonchiga kirdi. Olmasni qo'lga kiritib, taqinchoqlarni soxta qilib almashtirgan holda, firibgar olmosni sheriklariga topshiradi, uni darhol o'ldirishga urinadi. Olmos va xoin do'stlarini bir kechada yo'qotib, qahramon o'z hayotida eng qimmatbaho narsani saqlab qolishga harakat qiladi - u sevgan qiz.

Mavzu yaratish 12-Noy-2018 11:56 (9 daqiqa o‘tgach)

Iqitibos

Profil ShX

N.U.R.I.K.B.E.K ®

Jins:
Yigit
Staj:
1 yil 1 oy
Xabarlar:
344

Qayerdan: Jizzax. Paxtakor

Taqiq:

Unofficial, vneshka uchik edi xaliroqa qoldirudim tarjimasini raxmat

Mavzu yaratish 12-Noy-2018 12:27 (31 daqiqa o‘tgach)

Iqitibos

Profil ShX

N.U.R.I.K.B.E.K ®

Jins:
Yigit
Staj:
1 yil 1 oy
Xabarlar:
344

Qayerdan: Jizzax. Paxtakor

Taqiq:

Unofficial, menxam kriminal yozmoqchi buludim o'zbekchasini yozibqõyaqoldim

Mavzu yaratish 12-Noy-2018 12:30 (2 daqiqa o‘tgach)

Iqitibos

Profil ShX

Unofficial

Jins:
Yigit
Staj:
8 oy 21 kun
Xabarlar:
446

Qayerdan: Nukus

Taqiq:

6740Unofficial, menxam kriminal yozmoqchi buludim o'zbekchasini yozibqõyaqoldim
6739Unofficial, vneshka uchik edi xaliroqa qoldirudim tarjimasini raxmat
Xa mayli, nima bo'sayam yaxshi reliz chiqibdi, jon deb yuklardim, lekin kompimni bitta tozalab olishim kerak. Pamyat yo'q hisobi

Mavzu yaratish 12-Noy-2018 19:31 (7 soat o‘tgach)

Iqitibos

Profil ShX
Xabarlarni ko‘rsatish:    

Hozirgi vaqt: 17-Dek 09:30

Vaqtlar farqi: UTC + 5



Siz mavzu yaratishingiz mumkin emas
Siz xabarlarga javob qaytarishingiz mumkin emas
Siz o‘z xabarlaringizni tahrirlashingiz mumkin emas
Siz o‘z xabarlaringizni o‘chirishingiz mumkin emas
Siz so‘rovlarda ovoz berishingiz mumkin emas
Siz xabalarga fayllarni biriktirishingiz mumkin emas
Siz fayllarni ko‘chirishingiz mumkin emas