˂
˃
Tarqatmalar statistikasi
Ko‘chiraman: [ 2 ]
Ko‘chirmoqdaman: [ 11 ]
Ko‘chirib bo‘ldim: [ 32 ]
 
     
 
 

AxeL ®

Jins:
Yigit
Staj:
8 oy 1 kun
Xabarlar:
601

Qayerdan: Gronland, Norway

Taqiq:

Oxiri nima bo'larkin? / Как это заканчивается / How It Ends- Chiqqan yili: 2018
Davlat: AQSh
Janr: fantastika, jangari, triller, drama, detektiv, sarguzasht
Davomiyligi: 01:53:13
Tarjima: Professional (dublyaj qilingan, kadr ortidan) O'zbek tilida-Rejissyor: David M. Rozental-Rollarda: Teo Jeyms, Katerina Grehem, Nensi Sorel, Ari Parker, Forest Uitaker, Ari Parker, Anett Rumanoczky, J.J. Ramberg, Cheryl Gensiorek, Xarprit Singx Kanda, ...-Tavsif: Will va Samantha baxtli er-xotin bo'lib, yaqinda ular oilada to'ldirishadi. Ammo qizi boshqa shaharga ko'chib ketgani uchun g'azablangan Tom bilan uchrasha olmaydi. G'arbiy qirg'oq bo'ylab keng ko'lamdagi falokat sodir bo'lganda munosabatlarni aniqlashtirish qoldirilishi kerak. Elektr yopildi, aeroportlar yopildi va Samante xavf ostida qoldi. Will va Tom uni qutqarishga boradi.-Videoning sifati: WEB-DL 1080p
Video format: MKV
Video: MPEG4 Video (H264) 1920x1080 23.976fps 3 160 Kbps
Audio #1: DD+ 48000Hz 6ch 448kbps Ingliz tilida
Audio #2: AAC 48000Hz stereo 128 kbps O'zbek tilida

Media info

General
Unique ID                      : 43496425560128918424443682484062495234 (0x20B91B5A42869BCF6F7E14F826FBA202)
Complete name                  : D:\Seeders\How.It.Ends.2018.1080p.Eng.Uzb.AxeL.mkv
Format                         : Matroska
Format version                 : Version 4 / Version 2
File size                      : 2.94 GiB
Duration                       : 1h 53mn
Overall bit rate mode          : Variable
Overall bit rate               : 3 716 Kbps
Encoded date                   : UTC 2018-10-06 16:15:58
Writing application            : mkvmerge v22.0.0 ('At The End Of The World') 64-bit
Writing library                : libebml v1.3.5 + libmatroska v1.4.8
Video
ID                             : 1
Format                         : AVC
Format/Info                    : Advanced Video Codec
Format profile                 : Main@L4
Format settings, CABAC         : Yes
Format settings, ReFrames      : 3 frames
Codec ID                       : V_MPEG4/ISO/AVC
Duration                       : 1h 53mn
Bit rate mode                  : Variable
Bit rate                       : 3 160 Kbps
Maximum bit rate               : 4 740 Kbps
Width                          : 1 920 pixels
Height                         : 1 080 pixels
Display aspect ratio           : 16:9
Frame rate mode                : Constant
Frame rate                     : 23.976 (24000/1001) fps
Color space                    : YUV
Chroma subsampling             : 4:2:0
Bit depth                      : 8 bits
Scan type                      : Progressive
Bits/(Pixel*Frame)             : 0.064
Stream size                    : 2.48 GiB (84%)
Writing library                : x264 core 148 r2715 7e75228
Encoding settings              : cabac=1 / ref=3 / deblock=1:0:0 / analyse=0x1:0x111 / me=umh / subme=10 / psy=1 / psy_rd=1.00:0.00 / mixed_ref=1 / me_range=24 / chroma_me=1 / trellis=2 / 8x8dct=0 / cqm=0 / deadzone=21,11 / fast_pskip=1 / chroma_qp_offset=-2 / threads=8 / lookahead_threads=1 / sliced_threads=0 / nr=0 / decimate=1 / interlaced=0 / bluray_compat=0 / stitchable=1 / constrained_intra=0 / bframes=2 / b_pyramid=0 / b_adapt=2 / b_bias=0 / direct=3 / weightb=1 / open_gop=0 / weightp=2 / keyint=48 / keyint_min=25 / scenecut=0 / intra_refresh=0 / rc_lookahead=48 / rc=2pass / mbtree=1 / bitrate=3160 / ratetol=1.0 / qcomp=0.50 / qpmin=6 / qpmax=51 / qpstep=4 / cplxblur=20.0 / qblur=0.5 / vbv_maxrate=4740 / vbv_bufsize=6320 / nal_hrd=vbr / filler=0 / ip_ratio=1.40 / aq=1:1.00
Default                        : Yes
Forced                         : No
Audio #1
ID                             : 2
Format                         : E-AC-3
Format/Info                    : Audio Coding 3
Format settings, Endianness    : Big
Codec ID                       : A_EAC3
Duration                       : 1h 52mn
Bit rate mode                  : Constant
Bit rate                       : 448 Kbps
Channel(s)                     : 6 channels
Channel positions              : Front: L C R, Side: L R, LFE
Sampling rate                  : 48.0 KHz
Frame rate                     : 187.500 fps (256 spf)
Compression mode               : Lossy
Stream size                    : 361 MiB (12%)
Title                          : Ingliz tilida (AxeL)
Language                       : English
Default                        : Yes
Forced                         : No
Audio #2
ID                             : 3
Format                         : AAC
Format/Info                    : Advanced Audio Codec
Format profile                 : LC
Codec ID                       : A_AAC
Duration                       : 1h 53mn
Bit rate                       : 127 Kbps
Channel(s)                     : 2 channels
Channel positions              : Front: L R
Sampling rate                  : 48.0 KHz
Frame rate                     : 46.875 fps (1024 spf)
Compression mode               : Lossy
Stream size                    : 103 MiB (3%)
Title                          : O'zbek tilida (AxeL)
Language                       : Uzbek
Default                        : No
Forced                         : No
-LAVHALAR-
Profil ShX

Anvar26

Jins:
Yigit
Staj:
1 oy 12 kun
Xabarlar:
2
Taqiq:

9 soattan beri 15% bu nima degan gap

Mavzu yaratish 07-Okt-2018 07:41 (9 soat o‘tgach)

Iqitibos

Profil ShX

AxeL ®

Jins:
Yigit
Staj:
8 oy 1 kun
Xabarlar:
601

Qayerdan: Gronland, Norway

Taqiq:

Anvar26, ikkinchi reliz ham tarqatishga qo'yilgan, bu reliz bilan chumoli odam va asalari ikkalasi birdaniga tarqatilmoqda, shuning uchun tarqatish tezligi past

Mavzu yaratish 07-Okt-2018 08:51 (1 soat 10 daqiqa o‘tgach)

Iqitibos

Profil ShX

N.U.R.I.K.B.E.K

Jins:
Yigit
Staj:
1 yil
Xabarlar:
305

Qayerdan: Jizzax. Paxtakor

Taqiq:

axel ni tilasi ko'p ekan xamma reliz zolotoy bo'pketi ab

Mavzu yaratish 08-Okt-2018 00:08 (15 soat o‘tgach)

Iqitibos

Profil ShX

N.U.R.I.K.B.E.K

Jins:
Yigit
Staj:
1 yil
Xabarlar:
305

Qayerdan: Jizzax. Paxtakor

Taqiq:

af xarqalay o'zbekda zaxirasida tillasi ko'p

Mavzu yaratish 08-Okt-2018 00:31 (23 daqiqa o‘tgach)

Iqitibos

Profil ShX

AxeL ®

Jins:
Yigit
Staj:
8 oy 1 kun
Xabarlar:
601

Qayerdan: Gronland, Norway

Taqiq:

N.U.R.I.K.B.E.K, ag , hammasi sizlar uchun, bemalol ko'chirib olishsin deb oltin qildik))

Mavzu yaratish 08-Okt-2018 00:41 (9 daqiqa o‘tgach)

Iqitibos

Profil ShX

Lock

Jins:
Yigit
Staj:
1 oy 9 kun
Xabarlar:
9

Qayerdan: Namangan

Taqiq:

Rahmat

Mavzu yaratish 09-Okt-2018 09:03 (1 kun 8 soat o‘tgach)

Iqitibos

Profil ShX

AxeL ®

Jins:
Yigit
Staj:
8 oy 1 kun
Xabarlar:
601

Qayerdan: Gronland, Norway

Taqiq:

ko'chirib bo'ldim tugmasini bosib qo'yvoringlar, qanaqadir xatolik bo'lib torrent file royhatdan chiqib ketibdi

Mavzu yaratish 20-Okt-2018 23:04 (11 kun o‘tgach)

Iqitibos

Profil ShX

Asilbek 007

Jins:
Ko‘rsatilmagan
Staj:
7 oy 3 kun
Xabarlar:
12
Taqiq:

shu kinoga kim tushungan?

Mavzu yaratish 25-Okt-2018 22:26 (4 kun o‘tgach)

Iqitibos

Profil ShX
Xabarlarni ko‘rsatish:    

Hozirgi vaqt: 19-Noy 03:52

Vaqtlar farqi: UTC + 5



Siz mavzu yaratishingiz mumkin emas
Siz xabarlarga javob qaytarishingiz mumkin emas
Siz o‘z xabarlaringizni tahrirlashingiz mumkin emas
Siz o‘z xabarlaringizni o‘chirishingiz mumkin emas
Siz so‘rovlarda ovoz berishingiz mumkin emas
Siz xabalarga fayllarni biriktirishingiz mumkin emas
Siz fayllarni ko‘chirishingiz mumkin emas