˂
˃
Tarqatmalar statistikasi
Ko‘chiraman: [ 2 ]
Ko‘chirmoqdaman: [ 11 ]
Ko‘chirib bo‘ldim: [ 38 ]
 
     
 
 

MRLG ®

Jins:
Yigit
Staj:
1 yil 4 oy
Xabarlar:
526
Taqiq:

Panjara ortida (3-Fasl)
Chiqqan yili: 2007-2008
Davlat: AQSH
Janr: jangari, triller, drama, jinoiy ish, detektiv
Davomiyligi: ~00.45.00x13
Fasl: 3
Qism: 1-13
Tarjima #1: Professional dublyaj - [Zo'rTV]
Tarjima #2: To'liq dublyaj - [Ren-TV]-Rejissyor: Pol Shoyring / Paul Scheuring-Rollarda: Ventvort Miller, Dominik Pursell, Sara Ueyn Kellis, Jodi Lin OʻKif, Amori Nolasko, Robert Nepper, Ueyd Uilyams, Pol Adelshteyn, Rokmond Danbar, Steysi Kich va boshqalar-Serial haqida: Soxtalashtirilgan ayblovga ko'ra, Maykl Panamada joylashgan Sonna qamoqxonasida tushib qoladi, bu zindon mahbuslar qo'zg'olonidan so'ng, qamoqxona qo'riqchilarisiz qoladi va u yerdagi tartib intizomni qudratli narkobaron tartibga ushlab turadi. Aniqlanishicha, kompaniya Maykl Skofielddan sirli baliqchi Jeyms Vistler uchun Sonnadan qochishni uyushtirishini istashadi. Sirli baliqchini ozodligi shunchalik muhim bo'ladiki kompaniyadagilar El Jey va Sarani garovga olishadi. Rejani ishlab chiqishga va uni amalga oshirishga Mayklga atigi bir hafta beriladi.- -Sifat: BDRip
Format: AVI
Video: Xvid, 720x400, 23.976fps, 1297kbps
Audio №1: MP3, 48000Hz, stereo, 128kbps / Uzbek | Zo'rTV
Audio №2: MP3, 48000Hz, stereo, 128kbps / русский | Ren-TV

Media Info

General
Complete name                  : D:\Кино\Tarjima filmlar\Serial\Panjara Ortida [BDRip] (Zo'rTV Dub) Release by MRLG\3-FASL\Prison.Break.s03e01.(45).2007.BDRip.-MRLG.avi
Format                         : AVI
Format/Info                    : Audio Video Interleave
File size                      : 483 MiB
Duration                       : 43 min 5 s
Overall bit rate               : 1 568 kb/s
Writing application            : VirtualDubMod 1.5.10.3 (build 2550/release)
Writing library                : VirtualDubMod build 2550/release
Video
ID                             : 0
Format                         : MPEG-4 Visual
Format profile                 : Advanced Simple@L5
Format settings                : BVOP1
Format settings, BVOP          : 1
Format settings, QPel          : No
Format settings, GMC           : No warppoints
Format settings, Matrix        : Default (MPEG)
Codec ID                       : XVID
Codec ID/Hint                  : XviD
Duration                       : 43 min 5 s
Bit rate                       : 1 298 kb/s
Width                          : 720 pixels
Height                         : 400 pixels
Display aspect ratio           : 16:9
Frame rate                     : 23.976 (24000/1001) FPS
Color space                    : YUV
Chroma subsampling             : 4:2:0
Bit depth                      : 8 bits
Scan type                      : Progressive
Compression mode               : Lossy
Bits/(Pixel*Frame)             : 0.188
Stream size                    : 400 MiB (83%)
Writing library                : XviD 1.2.1 (UTC 2008-12-04)
Audio #1
ID                             : 1
Format                         : MPEG Audio
Format version                 : Version 1
Format profile                 : Layer 3
Format settings                : Joint stereo / MS Stereo
Codec ID                       : 55
Codec ID/Hint                  : MP3
Duration                       : 43 min 5 s
Bit rate mode                  : Constant
Bit rate                       : 128 kb/s
Channel(s)                     : 2 channels
Sampling rate                  : 48.0 kHz
Frame rate                     : 41.667 FPS (1152 SPF)
Compression mode               : Lossy
Stream size                    : 39.5 MiB (8%)
Alignment                      : Aligned on interleaves
Interleave, duration           : 42  ms (1.00 video frame)
Interleave, preload duration   : 504  ms
Writing library                : LAME3.100
Encoding settings              : -m j -V 4 -q 2 -lowpass 17 -b 128
Audio #2
ID                             : 2
Format                         : MPEG Audio
Format version                 : Version 1
Format profile                 : Layer 3
Codec ID                       : 55
Codec ID/Hint                  : MP3
Duration                       : 43 min 5 s
Bit rate mode                  : Constant
Bit rate                       : 128 kb/s
Channel(s)                     : 2 channels
Sampling rate                  : 48.0 kHz
Frame rate                     : 41.667 FPS (1152 SPF)
Compression mode               : Lossy
Stream size                    : 39.5 MiB (8%)
Alignment                      : Aligned on interleaves
Interleave, duration           : 42  ms (1.00 video frame)
Interleave, preload duration   : 504  ms
Writing library                : LAME3.98r
Encoding settings              : -m s -V 4 -q 2 -lowpass 17 -b 128

Miniatyura

Panjara ortida (1-Fasl)Panjara ortida (2-Fasl)


So‘ngi marta tahrirlandi: MRLG (2018-10-13 17:30), Jami tahrirlangan 9 marta
Profil ShX

MRLG ®

Jins:
Yigit
Staj:
1 yil 4 oy
Xabarlar:
526
Taqiq:

3-Faslning 1-qismi (TV bo'yicha 45-qism) joylandi. Xohlovchilar "Rahmat" tugmasini bosib faylni yuklashi mumkin.

Mavzu yaratish 22-Sen-2018 18:06 (3 daqiqa o‘tgach)

Iqitibos

Profil ShX

vuelta

Jins:
Yigit
Staj:
1 yil 4 oy
Xabarlar:
300
Taqiq:

poster zorku

Mavzu yaratish 22-Sen-2018 19:41 (1 soat 35 daqiqa o‘tgach)

Iqitibos

Profil ShX

MRLG ®

Jins:
Yigit
Staj:
1 yil 4 oy
Xabarlar:
526
Taqiq:

3-Faslning 2,3,4-qismlar (TV bo'yicha 46, 47, 48-qism) joylandi. Xohlovchilar "Rahmat" tugmasini bosib faylni yuklashi mumkin.

Mavzu yaratish 27-Sen-2018 16:18 (4 kun o‘tgach)

Iqitibos

Profil ShX

MRLG ®

Jins:
Yigit
Staj:
1 yil 4 oy
Xabarlar:
526
Taqiq:

3-fasl: 5-qism (TV bo'yicha 49-qism) qo'shildi. Ko'chirishni xohlovchilar... Hullas o'sha gapda.

Mavzu yaratish 28-Sen-2018 00:42 (8 soat o‘tgach)

Iqitibos

Profil ShX

MRLG ®

Jins:
Yigit
Staj:
1 yil 4 oy
Xabarlar:
526
Taqiq:

3-fasl: 6,7-qismlar (TV bo'yicha 50,51-qismlar) qo'shildi.

Mavzu yaratish 03-Okt-2018 15:44 (5 kun o‘tgach)

Iqitibos

Profil ShX

AxeL

Jins:
Yigit
Staj:
9 oy
Xabarlar:
615

Qayerdan: Gronland, Norway

Taqiq:

MRLG, shablondagi rang kodini aytolmaysizmi)? chiroyli turarkan

MRLGdan ma`lumot


#FF4900

Mavzu yaratish 03-Okt-2018 15:47 (2 daqiqa o‘tgach)

Iqitibos

Profil ShX

MRLG ®

Jins:
Yigit
Staj:
1 yil 4 oy
Xabarlar:
526
Taqiq:

3-fasl: 8, 9 - qismlar (TV bo'yicha 52, 53 - qismlar) qo'shildi.

Mavzu yaratish 05-Okt-2018 02:35 (1 kun 10 soat o‘tgach)

Iqitibos

Profil ShX

MRLG ®

Jins:
Yigit
Staj:
1 yil 4 oy
Xabarlar:
526
Taqiq:

Torrent fayl yangilandi. 3-fasl: 10-qism (TV bo'yicha 54-qism) qo'shildi.

Mavzu yaratish 06-Okt-2018 14:34 (1 kun 11 soat o‘tgach)

Iqitibos

Profil ShX

ZAFAR-studio

Jins:
Yigit
Staj:
5 oy 21 kun
Xabarlar:
27

Qayerdan: Хоразм вилояти, Урганч шаҳри, "12-сонли Маъшал" маҳалласидан

Taqiq:

MRLG, Катта рохмат

Mavzu yaratish 06-Okt-2018 19:12 (4 soat o‘tgach)

Iqitibos

Profil ShX

Spicger

Jins:
Yigit
Staj:
2 oy 18 kun
Xabarlar:
39

Qayerdan: Chinoz

Taqiq:

KOTTA RAHMAT SIZGA

Mavzu yaratish 06-Okt-2018 19:35 (22 daqiqa o‘tgach)

Iqitibos

Profil ShX

MRLG ®

Jins:
Yigit
Staj:
1 yil 4 oy
Xabarlar:
526
Taqiq:

Torrent fayl yangilandi. 3-fasl: 11,12,13-qismlar (TV bo'yicha 55,56,57-qismlar) qo'shildi. 3-Fasl tugadi.

Mavzu yaratish 11-Okt-2018 15:13 (4 kun o‘tgach)

Iqitibos

Profil ShX

ibroxim-box

Jins:
Ko‘rsatilmagan
Staj:
2 oy 8 kun
Xabarlar:
3
Taqiq:

3 faslning qolgan qismlarini qo'shinglar

Mavzu yaratish 24-Okt-2018 19:06 (13 kun o‘tgach)

Iqitibos

Profil ShX
Xabarlarni ko‘rsatish:    

Hozirgi vaqt: 18-Dek 01:18

Vaqtlar farqi: UTC + 5



Siz mavzu yaratishingiz mumkin emas
Siz xabarlarga javob qaytarishingiz mumkin emas
Siz o‘z xabarlaringizni tahrirlashingiz mumkin emas
Siz o‘z xabarlaringizni o‘chirishingiz mumkin emas
Siz so‘rovlarda ovoz berishingiz mumkin emas
Siz xabalarga fayllarni biriktirishingiz mumkin emas
Siz fayllarni ko‘chirishingiz mumkin emas