˂
˃
Tarqatmalar statistikasi
Ko‘chiraman: [ 2 ]
Ko‘chirmoqdaman: [ 17 ]
Ko‘chirib bo‘ldim: [ 28 ]
 
     
 
 

MRLG ®

Jins:
Yigit
Staj:
1 yil 3 oy
Xabarlar:
526
Taqiq:

Panjara ortida (4-Fasl)
Chiqqan yili: 2008-2009
Davlat: AQSH
Janr: jangari, triller, drama, jinoiy ish, detektiv
Davomiyligi: ~00.45.00x23
Fasl: 4
Qism: 1-22
Tarjima #1: Professional dublyaj - [Zo'rTV]
Tarjima #2: To'liq dublyaj - [Ren-TV]-Rejissyor: Pol Shoyring / Paul Scheuring-Rollarda: Ventvort Miller, Dominik Pursell, Sara Ueyn Kellis, Jodi Lin OʻKif, Amori Nolasko, Robert Nepper, Ueyd Uilyams, Pol Adelshteyn, Rokmond Danbar, Steysi Kich va boshqalar-Serial haqida: Maykl va Linkoln Kompaniyaga qarshi kurashishga o`z kuchlarini birlashtirishga tayyor. Aka-ukalar o`z kurashlariga tarafdorlarni yig`ish uchun, davlat agenti bilan birlashadi. Tarafdorlar ro`yxatiga bizga tanish bo`lgan qahramonlar - Maxouni, Bellik va albatta, Sukre kiradi. Aka-ukalar o`zlari qanchalar xohlamasalarda, Ti-Begni o`z qatorlariga qo`shishlariga to`g`ri keladi, Uni o`zi bilmagan holda, Kompaniyaga qarshi kurashda o`ta muhim dalillarga ega bo`ladi.- -Sifat: BDRip
Format: AVI
Video: Xvid, 720x400, 23.976fps, 1300kbps
Audio №1: MP3, 48000Hz, stereo, 128kbps / Uzbek | Zo'rTV
Audio №2: MP3, 48000Hz, stereo, 128kbps / русский | Ren-TV

Media Info

Общее
Полное имя                               : D:\Кино\Tarjima filmlar\Serial\Panjara Ortida [BDRip] (Zo'rTV Dub) Release by MRLG\4-FASL\Prison.Break.s04e01-02.(58-59).2009.BDRip.-MRLG.avi
Формат                                   : AVI
Формат/Информация                        : Audio Video Interleave
Размер файла                             : 970 Мбайт
Продолжительность                        : 1 ч. 26 м.
Общий поток                              : 1570 Кбит/сек
Программа кодирования                    : VirtualDubMod 1.5.10.3 (build 2550/release)
Библиотека кодирования                   : VirtualDubMod build 2550/release
Видео
Идентификатор                            : 0
Формат                                   : MPEG-4 Visual
Профиль формата                          : Advanced Simple@L5
Настройки формата                        : BVOP1
Параметр BVOP формата                    : 1
Параметр QPel формата                    : Нет
Параметр GMC формата                     : Без точки перехода
Параметр матрицы формата                 : Default (MPEG)
Идентификатор кодека                     : XVID
Идентификатор кодека/Подсказка           : XviD
Продолжительность                        : 1 ч. 26 м.
Битрейт                                  : 1300 Кбит/сек
Ширина                                   : 720 пикселей
Высота                                   : 400 пикселей
Соотношение сторон                       : 16:9
Частота кадров                           : 23,976 (24000/1001) кадра/сек
Цветовое пространство                    : YUV
Субдискретизация насыщенности            : 4:2:0
Битовая глубина                          : 8 бит
Тип развёртки                            : Прогрессивная
Метод сжатия                             : С потерями
Бит/(Пиксели*Кадры)                      : 0.188
Размер потока                            : 804 Мбайт (83%)
Библиотека кодирования                   : XviD 1.2.1 (UTC 2008-12-04)
Аудио #1
Идентификатор                            : 1
Формат                                   : MPEG Audio
Версия формата                           : Version 1
Профиль формата                          : Layer 3
Настройки формата                        : Joint stereo / MS Stereo
Идентификатор кодека                     : 55
Идентификатор кодека/Подсказка           : MP3
Продолжительность                        : 1 ч. 26 м.
Вид битрейта                             : Постоянный
Битрейт                                  : 128 Кбит/сек
Каналы                                   : 2 канала
Частота                                  : 48,0 КГц
Частота кадров                           : 41,667 кадра/сек (1152 SPF)
Метод сжатия                             : С потерями
Размер потока                            : 79,1 Мбайт (8%)
Выравнивание                             : Соединение по промежуткам
Продолжительность промежутка             : 42  мс. (1,00 видеокадр)
Время предзагрузки промежутка            : 504  мс.
Заголовок                                : O'zbek tilida (MRLG)
Библиотека кодирования                   : LAME3.100
Настройки программы                      : -m j -V 4 -q 2 -lowpass 17 -b 128
Аудио #2
Идентификатор                            : 2
Формат                                   : MPEG Audio
Версия формата                           : Version 1
Профиль формата                          : Layer 3
Идентификатор кодека                     : 55
Идентификатор кодека/Подсказка           : MP3
Продолжительность                        : 1 ч. 26 м.
Вид битрейта                             : Постоянный
Битрейт                                  : 128 Кбит/сек
Каналы                                   : 2 канала
Частота                                  : 48,0 КГц
Частота кадров                           : 41,667 кадра/сек (1152 SPF)
Метод сжатия                             : С потерями
Размер потока                            : 79,1 Мбайт (8%)
Выравнивание                             : Соединение по промежуткам
Продолжительность промежутка             : 42  мс. (1,00 видеокадр)
Время предзагрузки промежутка            : 504  мс.
Заголовок                                : Rus tilida
Библиотека кодирования                   : LAME3.98r
Настройки программы                      : -m s -V 4 -q 2 -lowpass 17 -b 128

Diqqat! Tarqatmada yangi qismlar qo'shib boriladi

Diqqat! Tarqatmada yangi qismlar qo'shib boriladi; har bir qism qo'shilganida yangi torrent yaratiladi. Yangi qismlarni ko'chirib olish uchun foydalanuvchilar qilishi kerak bo'lgan amallar:
(1) ko'chirishni to'xtatish,
(2) torrent dasturingizdan eski torrentni o'chirib tashlash (eski qismlarni o'chirish shart emas),
(3) yangi torrentni yuklash va o'z dasturingizda eskisini o'rniga yangi torrentni ishga tushirish, yangi qismlarni ko'chirish uchun dasturingizga eski saqlangan qismlar papkasi yo'lagini ko'rsatib o'tishingiz kerak bo'ladi.
Sizni dasturingiz shu vaqtda eski papkani tekshirishdan (хеширование) o'tkazishi kerak (agar tekshirish amalga oshmasa - unda o'zingiz yordam bering), va shunda sizda mavjud bo'lmagan qismlarni yuklab olish boshlanadi. Bunday holatda eski qismlar o'chib ketmaydi, tarqatishda davom etadi!
Agar siz eski qismlarni allaqachon o'chirib yuborgan bo`lsangiz, unda yangi torrent ishga tushirilgan vaqtda kerakli joylarga "галочка" qo'yib eski qismlarni ham qaytadan yuklashingiz mumkin. Iloji boricha eski qismlarni uzoq vaqt davomida o'chirmaslikka harakat qiling, chunki tarqatuvchi shaxs (релизёр) eski qismlarni tarqatishga emas, yangi qismlarni joylashga e'tiborini qaratishi kerak.

Miniatyura

Panjara ortida (1-Fasl)Panjara ortida (2-Fasl)Panjara ortida (3-Fasl)


So‘ngi marta tahrirlandi: MRLG (2018-11-10 19:00), Jami tahrirlangan 14 marta
Profil ShX

Gr@nd

Jins:
Yigit
Staj:
1 yil 2 oy
Xabarlar:
158

Qayerdan: Jizzax Forish

Taqiq:

Qoil Ishingizga rivoj

Mavzu yaratish 13-Okt-2018 23:22 (4 soat o‘tgach)

Iqitibos

Profil ShX

MRLG ®

Jins:
Yigit
Staj:
1 yil 3 oy
Xabarlar:
526
Taqiq:

4-Fasl: 3,4,5 (TV bo'yicha: 60,61,62) - qismlar qo'shildi. Xohlovchilar ko'chirib olishlari mumkin.

Mavzu yaratish 18-Okt-2018 12:54 (4 kun o‘tgach)

Iqitibos

Profil ShX

MRLG ®

Jins:
Yigit
Staj:
1 yil 3 oy
Xabarlar:
526
Taqiq:

4-Fasl: 6 (TV bo'yicha: 63) - qism qo'shildi. Xohlovchilar ko'chirib olishlari mumkin.

Mavzu yaratish 19-Okt-2018 01:23 (12 soat o‘tgach)

Iqitibos

Profil ShX

MRLG ®

Jins:
Yigit
Staj:
1 yil 3 oy
Xabarlar:
526
Taqiq:

4-Fasl: 7 (TV bo'yicha: 64) - qism qo'shildi. Xohlovchilar ko'chirib olishlari mumkin.

Mavzu yaratish 21-Okt-2018 16:15 (2 kun 14 soat o‘tgach)

Iqitibos

Profil ShX

MRLG ®

Jins:
Yigit
Staj:
1 yil 3 oy
Xabarlar:
526
Taqiq:

4-Fasl: 8 (TV bo'yicha: 65) - qism qo'shildi. Xohlovchilar ko'chirib olishlari mumkin.

Mavzu yaratish 23-Okt-2018 14:17 (1 kun 22 soat o‘tgach)

Iqitibos

Profil ShX

ZAFAR-studio

Jins:
Yigit
Staj:
5 oy 15 kun
Xabarlar:
27

Qayerdan: Хоразм вилояти, Урганч шаҳри, "12-сонли Маъшал" маҳалласидан

Taqiq:

MRLG, Сериалларни монтаж қилиб, фойдаланувчиларга релиз қилиб, тарқатганингиз учун ташаккуримни билдираман.

Mavzu yaratish 23-Okt-2018 22:16 (7 soat o‘tgach)

Iqitibos

Profil ShX

MRLG ®

Jins:
Yigit
Staj:
1 yil 3 oy
Xabarlar:
526
Taqiq:

4-Fasl: 9 (TV bo'yicha: 66) - qism qo'shildi. Xohlovchilar ko'chirib olishlari mumkin.

Mavzu yaratish 24-Okt-2018 01:48 (3 soat o‘tgach)

Iqitibos

Profil ShX

ibroxim-box

Jins:
Ko‘rsatilmagan
Staj:
2 oy 2 kun
Xabarlar:
3
Taqiq:

3 faslning qolganseriyalarini qo'shinglar

Mavzu yaratish 24-Okt-2018 19:05 (17 soat o‘tgach)

Iqitibos

Profil ShX

xasan6764

Jins:
Ko‘rsatilmagan
Staj:
1 yil 2 oy
Xabarlar:
23
Taqiq:

MRLG, katta raxmat oka

Mavzu yaratish 24-Okt-2018 19:24 (18 daqiqa o‘tgach)

Iqitibos

Profil ShX

xasan6764

Jins:
Ko‘rsatilmagan
Staj:
1 yil 2 oy
Xabarlar:
23
Taqiq:

ibroxim-box, xamma seryasi to'liq borku oka

Mavzu yaratish 24-Okt-2018 19:25 (1 daqiqa o‘tgach)

Iqitibos

Profil ShX

MRLG ®

Jins:
Yigit
Staj:
1 yil 3 oy
Xabarlar:
526
Taqiq:

4-Fasl: 10 (TV bo'yicha: 67) - qism qo'shildi. Xohlovchilar ko'chirib olishlari mumkin.

Mavzu yaratish 25-Okt-2018 00:39 (5 soat o‘tgach)

Iqitibos

Profil ShX

MRLG ®

Jins:
Yigit
Staj:
1 yil 3 oy
Xabarlar:
526
Taqiq:

4-Fasl: 11 (TV bo'yicha: 68) - qism qo'shildi. Xohlovchilar ko'chirib olishlari mumkin.

Mavzu yaratish 26-Okt-2018 00:51 (1 kun o‘tgach)

Iqitibos

Profil ShX

MRLG ®

Jins:
Yigit
Staj:
1 yil 3 oy
Xabarlar:
526
Taqiq:

4-Fasl: 12 (TV bo'yicha: 69) - qism qo'shildi. Xohlovchilar ko'chirib olishlari mumkin.

Mavzu yaratish 27-Okt-2018 13:38 (1 kun 12 soat o‘tgach)

Iqitibos

Profil ShX

Joker

Jins:
Ko‘rsatilmagan
Staj:
1 yil
Xabarlar:
2
Taqiq:

Ko'chirolmayapman? Xecham. 4chi Fasilni.

Mavzu yaratish 27-Okt-2018 19:49 (6 soat o‘tgach)

Iqitibos

Profil ShX
Xabarlarni ko‘rsatish:    

Hozirgi vaqt: 11-Dek 21:56

Vaqtlar farqi: UTC + 5



Siz mavzu yaratishingiz mumkin emas
Siz xabarlarga javob qaytarishingiz mumkin emas
Siz o‘z xabarlaringizni tahrirlashingiz mumkin emas
Siz o‘z xabarlaringizni o‘chirishingiz mumkin emas
Siz so‘rovlarda ovoz berishingiz mumkin emas
Siz xabalarga fayllarni biriktirishingiz mumkin emas
Siz fayllarni ko‘chirishingiz mumkin emas