Tarqatmalar statistikasi
Ko‘chiraman: [ 1 ]
 
     
 
 

BoboMUROD ®

Jins:
Ko‘rsatilmagan
Staj:
9 oy 18 kun
Xabarlar:
10
Taqiq:

PiraMMMida / The PyraMMMid
Davlat: Rossiya
Janr: Jangari, triller, drama, kriminal
Chiqqan yili: 2010
Davomiyligi: 01:45:00
Перевод: Профессиональный (дублированный)
Tarjima haqida qo'shimcha ma'lumot: NTT telekanali
Rejissiyor: Eldar Salavatov
Rollarda: Aleksey Serebryakov,Petr Fedorov, Fyodor Bondarchuk, Yuriy Surilo, Artyom Mihalkov, Aleksey Gorbunov, Anna Mihalkova, Ekaterina Vilkova, Daniil Spivakovskiy, Igor Yasko va boshqalar
Описание: Россия, начало 90-х. Страна в процессе болезненного перехода от сверхцентрализованной плановой экономики к рыночным отношениям. Простые люди, прежде жившие в условиях стабильности, растеряны и перепуганы. Все пришло в движение, ход истории разворачивается на глазах. Поворотные моменты истории всегда способствуют появлению всевозможных самозванцев и талантливых мошенников.
Сергей Мамонтов ищет, куда применить себя и свой интеллект. И находит. Мамонтов заказывает макет «ценной бумаги» с имперской вязью, богатым орнаментом, водяными знаками и собственным портретом в самом центре. Своим «деньгам» он назначает цену сам и продает их по принципу: сегодня всегда дороже, чем вчера.
Началась активная рекламная кампания. Чуть больше двух недель оказалось достаточно, чтобы народ уже выстроился в очереди за «мамонтовками», а Мамонтов стал едва ли не национальным героем. И могущественные банкиры, и властные структуры в растерянности — никто не имеет понятия, как прекратить этот беспредел — а в МММ уже набралось больше 10 миллионов вкладчиков… Заговоры, похищения людей, погони, заказные убийства. И немного любви.
Качество видео: DVDRip
Формат видео: AVI
Video: Video (H264) main L4.0, yuv 420p 720x304 555 Kbps
Audio: Stereo [uzb] (aac lc 44100Hz stereo 160kb/s

MediaInfo

General
Complete name : D:\KINO\TARJIMA\Pirammmida.mp4
Format : MPEG-4
Format profile : Base Media / Version 2
Codec ID : mp42 (isom/iso2/avc1/mp41)
File size : 543 MiB
Duration : 1 h 45 min
Overall bit rate mode : Variable
Overall bit rate : 722 kb/s
Encoded date : UTC 2017-03-11 13:33:44
Tagged date : UTC 2017-03-11 13:33:44
Writing application : HandBrake 1.0.2 2017012200
Video
ID : 1
Format : AVC
Format/Info : Advanced Video Codec
Format profile : Main@L4
Format settings, CABAC : Yes
Format settings, ReFrames : 4 frames
Codec ID : avc1
Codec ID/Info : Advanced Video Coding
Duration : 1 h 45 min
Bit rate : 556 kb/s
Width : 720 pixels
Height : 304 pixels
Display aspect ratio : 2.35:1
Frame rate mode : Constant
Frame rate : 25.000 FPS
Color space : YUV
Chroma subsampling : 4:2:0
Bit depth : 8 bits
Scan type : Progressive
Bits/(Pixel*Frame) : 0.102
Stream size : 419 MiB (77%)
Writing library : x264 core 148 r2708 86b7198
Encoding settings : cabac=1 / ref=1 / deblock=1:0:0 / analyse=0x1:0x111 / me=hex / subme=2 / psy=1 / psy_rd=1.00:0.00 / mixed_ref=0 / me_range=16 / chroma_me=1 / trellis=0 / 8x8dct=0 / cqm=0 / deadzone=21,11 / fast_pskip=1 / chroma_qp_offset=0 / threads=6 / lookahead_threads=2 / sliced_threads=0 / nr=0 / decimate=1 / interlaced=0 / bluray_compat=0 / constrained_intra=0 / bframes=3 / b_pyramid=2 / b_adapt=1 / b_bias=0 / direct=1 / weightb=1 / open_gop=0 / weightp=1 / keyint=250 / keyint_min=25 / scenecut=40 / intra_refresh=0 / rc_lookahead=10 / rc=crf / mbtree=1 / crf=20.0 / qcomp=0.60 / qpmin=0 / qpmax=69 / qpstep=4 / vbv_maxrate=20000 / vbv_bufsize=25000 / crf_max=0.0 / nal_hrd=none / filler=0 / ip_ratio=1.40 / aq=1:1.00
Encoded date : UTC 2017-03-11 13:33:44
Tagged date : UTC 2017-03-11 13:33:44
Color range : Limited
Color primaries : BT.601 PAL
Transfer characteristics : BT.709
Matrix coefficients : BT.601
Audio
ID : 2
Format : AAC
Format/Info : Advanced Audio Codec
Format profile : LC
Codec ID : 40
Duration : 1 h 45 min
Bit rate mode : Variable
Bit rate : 160 kb/s
Channel(s) : 2 channels
Channel positions : Front: L R
Sampling rate : 44.1 kHz
Frame rate : 43.066 FPS (1024 spf)
Compression mode : Lossy
Stream size : 121 MiB (22%)
Title : Stereo / Stereo
Language : Uzbek
Default : Yes
Alternate group : 1
Encoded date : UTC 2017-03-11 13:33:44
Tagged date : UTC 2017-03-11 13:33:44
Profil ShX

Frozen

Jins:
Yigit
Staj:
11 oy 4 kun
Xabarlar:
58

Qayerdan: Toshkent, Navoi

Taqiq:

Ovozi tiniqmi?

Mavzu yaratish 18-Okt-2017 17:55 (5 soat o‘tgach)

Iqitibos

Profil ShX

BoboMUROD ®

Jins:
Ko‘rsatilmagan
Staj:
9 oy 18 kun
Xabarlar:
10
Taqiq:

Frozen, Ha

Mavzu yaratish 18-Okt-2017 22:08 (4 soat o‘tgach)

Iqitibos

Profil ShX
Xabarlarni ko‘rsatish:    

Hozirgi vaqt: 22-Iyul 19:28

Vaqtlar farqi: UTC + 5



Siz mavzu yaratishingiz mumkin emas
Siz xabarlarga javob qaytarishingiz mumkin emas
Siz o‘z xabarlaringizni tahrirlashingiz mumkin emas
Siz o‘z xabarlaringizni o‘chirishingiz mumkin emas
Siz so‘rovlarda ovoz berishingiz mumkin emas
Siz xabalarga fayllarni biriktirishingiz mumkin emas
Siz fayllarni ko‘chirishingiz mumkin emas