˂
˃
Tarqatmalar statistikasi
Ko‘chiraman: [ 1 ]
Ko‘chirmoqdaman: [ 11 ]
Ko‘chirib bo‘ldim: [ 53 ]
 
     
 
 

bekastar ®

Jins:
Yigit
Staj:
6 oy 15 kun
Xabarlar:
26

Qayerdan: Samarqand

Taqiq:

--Poyga 3 / Гонка 3 / Race 3- Chiqqan yili: 2018
Davlat: Hindiston
Janri: Jangari, triller
Davomiyligi: 02:39:02
Tarjima: Dublyaj (Professional kadr ortidan) [Favvora Studio] O'zbek Tilida-Rejissiyor: Remo-Sеnariy: Shiraz Ahmad, Kiran Kotrial
Prodyusеr: Salma Xon, Ramesh Saduram Taurani, Chandru Baxtiyani
Tasvirchi: Ayananka Bose
Bastakor: Salim Merchant, Sulaymon Merchant
Rassom: Rajnish Hedao, Abilova Devnani, Riya Kapur
Montaj ustasi: Stiven X. Bernard-Rollarda: Salman Xon, Anil Kapur, Bobby Deol, Jacqueline Fernandez, Daisy Shoh, Sakib Salim, Freddi Daruvala, Naushad Abbos, Najmeddin AlHadad, Kabir Ali-Tavsif: Al Shifa shahrida yashovchi Shamsher Singh, mashhur qurolli baron atrofida aylanib yurgan mashhur hind aktyor filmining davomi. Asosiy xarakter o'zini hech narsadan voz kechishga odatlanmaydigan va u hashamat bilan zabt etadi. Shunga qaramasdan Shamsher Hindistonga qaytib borishni orzu qiladi. Singhga u erda qolish xavfsiz emas, demak, u qanday qilib, kim bilan va qanday sharoitda u erga qaytib borishini diqqat bilan ko'rib chiqishi kerak. Qo`zg'or yordamchisiga uning oilasi yordam beradi. Suraj, Sikander va Sanjana Shamsherning asosiy maqsadiga erishishga yordam berishga tayyor. Keyingi musobaqa boshlanadi, g'alaba faqat eng aqlli va hiyla-nayrang ishtirokchisini oladi.-
Sifat: HDRip 720p
Format: MKV
Video: | H.264/AVC 1280x536 / 23.976fps / 1126 kb/s
Audio #1: MPEG -1 layer 3 44100Hz stereo 128 Kbps O'zbek tilida (Favvora studio)
Audio #2: MPEG -1 layer 3 44100Hz stereol 128 Kbps / Russ Tilida (FAN Studio)

Audio #3: Dolby AC3 44100Hz 6ch 112Kbps / (Hindcha haqiqiy ovoz)

Media Info

Общее
Уникальный идентификатор                 : 224631889174889103448035852742383727019 (0xA8FE8736F9E498519191999AA06171AB)
Полное имя                               : F:\KINO\Poyga 3 (2018) Uzb.Rus.Hind 720p HDRip x264.mkv
Формат                                   : Matroska
Версия формата                           : Version 2
Размер файла                             : 1,68 Гбайт
Продолжительность                        : 2 ч. 39 м.
Общий поток                              : 1512 Кбит/сек
Название фильма                          : www.TamilRockers.cl
Дата кодирования                         : UTC 2018-10-24 22:07:24
Программа кодирования                    : mkvmerge v4.0.0 ('The Stars were mine') сборка от Jun  6 2010 16:18:42
Библиотека кодирования                   : libebml v1.0.0 + libmatroska v1.0.0
Видео
Идентификатор                            : 3
Формат                                   : AVC
Формат/Информация                        : Advanced Video Codec
Профиль формата                          : High@L3.1
Параметр CABAC формата                   : Да
Параметр ReFrames формата                : 4 кадра
Идентификатор кодека                     : V_MPEG4/ISO/AVC
Битрейт                                  : 1126 Кбит/сек
Ширина                                   : 1280 пикселей
Высота                                   : 536 пикселей
Соотношение сторон                       : 2,40:1
Режим частоты кадров                     : Переменный
Частота кадров в оригинале               : 23,976 кадра/сек
Цветовое пространство                    : YUV
Субдискретизация насыщенности            : 4:2:0
Битовая глубина                          : 8 бит
Тип развёртки                            : Прогрессивная
Бит/(Пиксели*Кадры)                      : 0.068
Заголовок                                : Poyga 3 Hind Tilida (Original)
Библиотека кодирования                   : x264 core 155 r2901 7d0ff22
Настройки программы                      : cabac=1 / ref=3 / deblock=1:0:0 / analyse=0x3:0x113 / me=hex / subme=7 / psy=1 / psy_rd=1.00:0.00 / mixed_ref=1 / me_range=16 / chroma_me=1 / trellis=1 / 8x8dct=1 / cqm=0 / deadzone=21,11 / fast_pskip=1 / chroma_qp_offset=-2 / threads=17 / lookahead_threads=2 / sliced_threads=0 / nr=0 / decimate=1 / interlaced=0 / bluray_compat=0 / constrained_intra=0 / bframes=3 / b_pyramid=2 / b_adapt=1 / b_bias=0 / direct=1 / weightb=1 / open_gop=0 / weightp=2 / keyint=240 / keyint_min=23 / scenecut=40 / intra_refresh=0 / rc_lookahead=40 / rc=2pass / mbtree=1 / bitrate=1126 / ratetol=1.0 / qcomp=0.60 / qpmin=0 / qpmax=69 / qpstep=4 / cplxblur=20.0 / qblur=0.5 / ip_ratio=1.40 / aq=1:1.00
Язык                                     : Hindi
Default                                  : Нет
Forced                                   : Нет
Аудио #1
Идентификатор                            : 1
Формат                                   : MPEG Audio
Версия формата                           : Version 1
Профиль формата                          : Layer 3
Режим                                    : Joint stereo
Расширение режима                        : MS Stereo
Идентификатор кодека                     : A_MPEG/L3
Идентификатор кодека/Подсказка           : MP3
Продолжительность                        : 2 ч. 39 м.
Вид битрейта                             : Постоянный
Битрейт                                  : 128 Кбит/сек
Каналы                                   : 2 канала
Частота                                  : 44,1 КГц
Метод сжатия                             : С потерями
Размер потока                            : 146 Мбайт (8%)
Заголовок                                : Poyga 3 O'zbek Tilida (By Bekastar)
Библиотека кодирования                   : LAME3.98.2
Язык                                     : Uzbek
Default                                  : Да
Forced                                   : Нет
Аудио #2
Идентификатор                            : 2
Формат                                   : MPEG Audio
Версия формата                           : Version 1
Профиль формата                          : Layer 3
Режим                                    : Joint stereo
Расширение режима                        : MS Stereo
Идентификатор кодека                     : A_MPEG/L3
Идентификатор кодека/Подсказка           : MP3
Продолжительность                        : 2 ч. 39 м.
Вид битрейта                             : Постоянный
Битрейт                                  : 128 Кбит/сек
Каналы                                   : 2 канала
Частота                                  : 44,1 КГц
Метод сжатия                             : С потерями
Размер потока                            : 146 Мбайт (8%)
Заголовок                                : Poyga 3 Russ Tilida (By FAN Studio)
Библиотека кодирования                   : LAME3.98.2
Язык                                     : Russian
Default                                  : Нет
Forced                                   : Нет
Аудио #3
Идентификатор                            : 4
Формат                                   : AC-3
Формат/Информация                        : Audio Coding 3
Расширение режима                        : CM (complete main)
Параметр Endianness формата              : Big
Идентификатор кодека                     : A_AC3
Продолжительность                        : 2 ч. 39 м.
Вид битрейта                             : Постоянный
Битрейт                                  : 128 Кбит/сек
Каналы                                   : 6 каналов
Расположение каналов                     : Front: L C R, Side: L R, LFE
Частота                                  : 44,1 КГц
Частота кадров                           : 28,711 кадров/сек (1536 spf)
Битовая глубина                          : 16 бит
Метод сжатия                             : С потерями
Размер потока                            : 146 Мбайт (8%)
Заголовок                                : Poyga 3 Hind Tilida (Original)
Язык                                     : Hindi
Default                                  : Нет
Forced                                   : Нет
-SKRINSHOTLAR--


So‘ngi marta tahrirlandi: bekastar (2018-10-31 11:05), Jami tahrirlangan 3 marta
Profil ShX

Gr@nd

Jins:
Yigit
Staj:
1 yil 2 oy
Xabarlar:
158

Qayerdan: Jizzax Forish

Taqiq:

bekastar, Shoshipside 23:20 ovozlar yaxshi tushmagan orqada oldinda bo'lib yotibdi bunaqa ishlarga shoshmasdan kirishish kerak de

Mavzu yaratish 25-Okt-2018 18:03 (13 soat o‘tgach)

Iqitibos

Profil ShX

Gr@nd

Jins:
Yigit
Staj:
1 yil 2 oy
Xabarlar:
158

Qayerdan: Jizzax Forish

Taqiq:

Shuncha qilgan ishingiz e afsus

Mavzu yaratish 25-Okt-2018 18:06 (3 daqiqa o‘tgach)

Iqitibos

Profil ShX

Mr.World

Jins:
Ko‘rsatilmagan
Staj:
2 oy 19 kun
Xabarlar:
13
Taqiq:

Ooooooooooooooooooooo... Katta rahmat... Kam bo'lmanglar... Ishlarga omad!!!

Mavzu yaratish 25-Okt-2018 19:22 (1 soat 15 daqiqa o‘tgach)

Iqitibos

Profil ShX

bekbola

Jins:
Ko‘rsatilmagan
Staj:
1 oy 17 kun
Xabarlar:
10
Taqiq:

O'zbekcha ovozlarga uzulish yo'qmi?

Mavzu yaratish 25-Okt-2018 19:27 (5 daqiqa o‘tgach)

Iqitibos

Profil ShX

Gr@nd

Jins:
Yigit
Staj:
1 yil 2 oy
Xabarlar:
158

Qayerdan: Jizzax Forish

Taqiq:

bekbola, Uzulish ma ovozi yaxshi tushmagan ovoz qolip ketadi bir o'tib ketadi

Mavzu yaratish 25-Okt-2018 21:31 (2 soat 3 daqiqa o‘tgach)

Iqitibos

Profil ShX

bekastar ®

Jins:
Yigit
Staj:
6 oy 15 kun
Xabarlar:
26

Qayerdan: Samarqand

Taqiq:

Gr@nd, To'g'irlab chiqaman albatta

Mavzu yaratish 25-Okt-2018 21:44 (13 daqiqa o‘tgach)

Iqitibos

Profil ShX

bekastar ®

Jins:
Yigit
Staj:
6 oy 15 kun
Xabarlar:
26

Qayerdan: Samarqand

Taqiq:

Programma nosozligi tufayli Ovoz yo'lakchasi tushmay qolgan joylari to'g'irlandi!
Ushbu nosozlik uchun hammadan uzur so'rab qolaman!
Kinoni ko'chirib olganlar uchun ovoz yo'lakcha ( https://idata.uz/index.php/s/9hkhs8bL6DWppS4 ) kinoni qayta ko'chirmaslig uchun!


So‘ngi marta tahrirlandi: bekastar (2018-10-26 00:23), Jami tahrirlangan 2 marta

Mavzu yaratish 26-Okt-2018 00:03 (2 soat 18 daqiqa o‘tgach)

Iqitibos

Profil ShX

bekbola

Jins:
Ko‘rsatilmagan
Staj:
1 oy 17 kun
Xabarlar:
10
Taqiq:

bekastar, Qayta ovoz to'g'rilangan variantini qo'ydingizmi?

Mavzu yaratish 26-Okt-2018 00:21 (18 daqiqa o‘tgach)

Iqitibos

Profil ShX

bekbola

Jins:
Ko‘rsatilmagan
Staj:
1 oy 17 kun
Xabarlar:
10
Taqiq:

Rahmat katta...

Mavzu yaratish 26-Okt-2018 00:22 (54 soniya o‘tgach)

Iqitibos

Profil ShX

bekbola

Jins:
Ko‘rsatilmagan
Staj:
1 oy 17 kun
Xabarlar:
10
Taqiq:

bekastar, Iloji bo'lsa, Tezlik 3 (hind kino)ni ham reliz qiling. Oldindan rahmat...

Mavzu yaratish 26-Okt-2018 20:54 (20 soat o‘tgach)

Iqitibos

Profil ShX

ibrat

Jins:
Ko‘rsatilmagan
Staj:
1 oy 1 kun
Xabarlar:
1
Taqiq:

qanaq qb korsa boladi

Mavzu yaratish 10-Noy-2018 19:01 (14 kun o‘tgach)

Iqitibos

Profil ShX

Unofficial

Jins:
Yigit
Staj:
8 oy 15 kun
Xabarlar:
445

Qayerdan: Nukus

Taqiq:

6730qanaq qb korsa boladi
ko'rish uchun faylni yuklab olishingiz kerak. Bu treker, onlayn ko'rish imkoni yo'q. Boshqa ko'ngilochar saytlardan onlayn ko'rsa bo'ladi

Mavzu yaratish 11-Noy-2018 11:41 (16 soat o‘tgach)

Iqitibos

Profil ShX
Xabarlarni ko‘rsatish:    

Hozirgi vaqt: 11-Dek 20:24

Vaqtlar farqi: UTC + 5



Siz mavzu yaratishingiz mumkin emas
Siz xabarlarga javob qaytarishingiz mumkin emas
Siz o‘z xabarlaringizni tahrirlashingiz mumkin emas
Siz o‘z xabarlaringizni o‘chirishingiz mumkin emas
Siz so‘rovlarda ovoz berishingiz mumkin emas
Siz xabalarga fayllarni biriktirishingiz mumkin emas
Siz fayllarni ko‘chirishingiz mumkin emas