˂
˃
Tarqatmalar statistikasi
Yoʻq
 
     
 
 

MRLG ®

Jins:
Yigit
Staj:
1 yil 3 oy
Xabarlar:
523
Taqiq:

-Qahramon ayol | Чудо-женщина | Wonder Woman- FILM HAQIDA MA'LUMOT
Chiqqan yili: 2017
Davlat: AQSH
Janri: Fantastika, Fentezi, Jangari, Sarguzasht
Davomiyligi: 02:21:13
Tarjima: Dublyaj (Professional kadr ortidan) [Favvora Studio]-Rejissiyor: Patti Djenkins
Rollarda
Gal Gadot, Robin Rayt, Devid Tyulis, Konni Nilsen, Kris Payn, Yelena Anayya, Lyusi Devis, Yuen Bremner, Dautsen Kryoz, Denni Xyuston-Tavsif
Qahramon ayol nomini olishdan avval u, Diana - yengilmas jangchi va amazonkalar malikasi edi. Ularning tashqi dunyodan ximoyalangan vatani bo'lmish jannat oroli qirg'og'iga Amerikalik uchuvchi kelib qulaydi va tashqi dunyoda borayotgan jahon urushi haqida so'zlab beradi. Diana ushbu havfni bartaraf etish uchun o'z uyini tark etadi. Jangda insonlar bilan yelkama-yelka jang qila turib Diana o'z kuch - qudratini va asl maqsadini aniqlaydi.-Qo'shimcha ma'lumotlar-Sifat: WEB-DLRip
Format: AVI
Video: | Xvid | 720x304 | 23.976fps | 1685 kbps |
Audio #1: MP3 / 48000Hz / 2ch / 128kbps / O'zbek tilida (Favvora studio)
Audio #2: AC3 / 6ch / 48 kHz / 384 kbps / Rus tilida + iTunes-

MI

General
Complete name                  : D:\Кино\Tarjima filmlar\Qahramon Ayol (2017)\Qahramon Ayol (2.18Gb) (2017).avi
Format                         : AVI
Format/Info                    : Audio Video Interleave
Format profile                 : OpenDML
File size                      : 2.19 GiB
Duration                       : 2 h 21 min
Overall bit rate               : 2 216 kb/s
Writing application            : VirtualDubMod 1.5.10.3 | www.virtualdub-fr.org || (build 2550/release)
Writing library                : VirtualDubMod build 2550/release
Video
ID                             : 0
Format                         : MPEG-4 Visual
Format profile                 : Advanced Simple@L5
Format settings, BVOP          : 2
Format settings, QPel          : No
Format settings, GMC           : No warppoints
Format settings, Matrix        : Default (MPEG)
Codec ID                       : XVID
Codec ID/Hint                  : XviD
Duration                       : 2 h 21 min
Bit rate                       : 1 686 kb/s
Width                          : 720 pixels
Height                         : 304 pixels
Display aspect ratio           : 2.35:1
Frame rate                     : 23.976 (24000/1001) FPS
Color space                    : YUV
Chroma subsampling             : 4:2:0
Bit depth                      : 8 bits
Scan type                      : Progressive
Compression mode               : Lossy
Bits/(Pixel*Frame)             : 0.321
Stream size                    : 1.66 GiB (76%)
Writing library                : XviD 1.2.1 (UTC 2008-12-04)
Audio #1
ID                             : 1
Format                         : MPEG Audio
Format version                 : Version 1
Format profile                 : Layer 3
Codec ID                       : 55
Codec ID/Hint                  : MP3
Duration                       : 2 h 21 min
Bit rate mode                  : Constant
Bit rate                       : 128 kb/s
Channel(s)                     : 2 channels
Sampling rate                  : 48.0 kHz
Compression mode               : Lossy
Stream size                    : 129 MiB (6%)
Alignment                      : Aligned on interleaves
Interleave, duration           : 42  ms (1.00 video frame)
Interleave, preload duration   : 504  ms
Writing library                : LAME3.99r
Encoding settings              : -m s -V 4 -q 2 -lowpass 17 -b 128
Audio #2
ID                             : 2
Format                         : AC-3
Format/Info                    : Audio Coding 3
Format settings, Endianness    : Big
Codec ID                       : 2000
Duration                       : 2 h 21 min
Bit rate mode                  : Constant
Bit rate                       : 384 kb/s
Channel(s)                     : 6 channels
Channel positions              : Front: L C R, Side: L R, LFE
Sampling rate                  : 48.0 kHz
Frame rate                     : 31.250 FPS (1536 SPF)
Bit depth                      : 16 bits
Compression mode               : Lossy
Stream size                    : 388 MiB (17%)
Alignment                      : Split accross interleaves
Interleave, duration           : 42  ms (1.00 video frame)
Interleave, preload duration   : 500  ms
Service kind                   : Complete Main

Miniatyura

SKRINSHOTLAR
Profil ShX

MRLG ®

Jins:
Yigit
Staj:
1 yil 3 oy
Xabarlar:
523
Taqiq:

Filmdan tashqari alohida ovoz yolakchasini ham razdachaga qoshdim. Balkim kimdir shu filmni HD variantini yasaydimi deb :)

Mavzu yaratish 17-Sen-2017 19:00 (5 daqiqa o‘tgach)

Iqitibos

Profil ShX

vuelta

Jins:
Yigit
Staj:
1 yil 3 oy
Xabarlar:
298
Taqiq:

Zo'r ga uxshaydi

Mavzu yaratish 17-Sen-2017 19:40 (39 daqiqa o‘tgach)

Iqitibos

Profil ShX

Vampire_1987

Jins:
Ko‘rsatilmagan
Staj:
1 yil 2 oy
Xabarlar:
115
Taqiq:

MRLG, Salom Filim Uchun Katta raxmat Filimda Ovozlar Yaxshi Joylashganmi Yani Rus Tilidagi bilan Ozbek Tilidagisini Tovushi Past Baland Emasmi ?

Mavzu yaratish 17-Sen-2017 21:17 (1 soat 36 daqiqa o‘tgach)

Iqitibos

Profil ShX

MRLG ®

Jins:
Yigit
Staj:
1 yil 3 oy
Xabarlar:
523
Taqiq:

Vampire_1987, rus ovozni past balandligiga endi siz baho berasiz.

Mavzu yaratish 17-Sen-2017 21:20 (3 daqiqa o‘tgach)

Iqitibos

Profil ShX

Vampire_1987

Jins:
Ko‘rsatilmagan
Staj:
1 yil 2 oy
Xabarlar:
115
Taqiq:

164Vampire_1987, rus ovozni past balandligiga endi siz baho berasiz.
Albatta Baholab Ketaman Manshu Relizni !

Mavzu yaratish 17-Sen-2017 21:26 (5 daqiqa o‘tgach)

Iqitibos

Profil ShX

vuelta

Jins:
Yigit
Staj:
1 yil 3 oy
Xabarlar:
298
Taqiq:

tezlik ertaga zor buladi VDS skachat qivosin)

Mavzu yaratish 17-Sen-2017 21:51 (25 daqiqa o‘tgach)

Iqitibos

Profil ShX

UZTEXNO

Jins:
Yigit
Staj:
1 yil 2 oy
Xabarlar:
25
Taqiq:

MRLG, Omad!

Mavzu yaratish 18-Sen-2017 14:53 (17 soat o‘tgach)

Iqitibos

Profil ShX

Jamik

Jins:
Ko‘rsatilmagan
Staj:
1 yil 2 oy
Xabarlar:
14
Taqiq:

nega tarqatish yo'q??? Sidda turinglar iltimos

Mavzu yaratish 27-Sen-2017 05:36 (8 kun o‘tgach)

Iqitibos

Profil ShX

vuelta

Jins:
Yigit
Staj:
1 yil 3 oy
Xabarlar:
298
Taqiq:

Teredo bormi

Mavzu yaratish 27-Sen-2017 13:26 (7 soat o‘tgach)

Iqitibos

Profil ShX

Jamik

Jins:
Ko‘rsatilmagan
Staj:
1 yil 2 oy
Xabarlar:
14
Taqiq:

Teredo bor

Mavzu yaratish 28-Sen-2017 10:31 (21 soat o‘tgach)

Iqitibos

Profil ShX

vuelta

Jins:
Yigit
Staj:
1 yil 3 oy
Xabarlar:
298
Taqiq:

Jamik, qayta skachatga turing

Mavzu yaratish 28-Sen-2017 14:03 (3 soat o‘tgach)

Iqitibos

Profil ShX

Jamik

Jins:
Ko‘rsatilmagan
Staj:
1 yil 2 oy
Xabarlar:
14
Taqiq:

qayta skachkaga turdim baribir sid va pirlar umuman yuq

Mavzu yaratish 28-Sen-2017 20:13 (6 soat o‘tgach)

Iqitibos

Profil ShX

vuelta

Jins:
Yigit
Staj:
1 yil 3 oy
Xabarlar:
298
Taqiq:

mana xasan6764 skachatga turdiku nimadir xato sizda Jamik

Mavzu yaratish 29-Sen-2017 14:07 (17 soat o‘tgach)

Iqitibos

Profil ShX
Xabarlarni ko‘rsatish:    

Hozirgi vaqt: 18-Noy 16:53

Vaqtlar farqi: UTC + 5



Siz mavzu yaratishingiz mumkin emas
Siz xabarlarga javob qaytarishingiz mumkin emas
Siz o‘z xabarlaringizni tahrirlashingiz mumkin emas
Siz o‘z xabarlaringizni o‘chirishingiz mumkin emas
Siz so‘rovlarda ovoz berishingiz mumkin emas
Siz xabalarga fayllarni biriktirishingiz mumkin emas
Siz fayllarni ko‘chirishingiz mumkin emas