˂
˃
Tarqatmalar statistikasi
Yoʻq
 
     
 
 

Gr@nd ®

Jins:
Yigit
Staj:
1 yil 1 oy
Xabarlar:
158

Qayerdan: Jizzax Forish

Taqiq:

- -Qahramon ayol / Wonder Woman / Чудо-женщина- Davlat: AQSH
Janr: Fantastika, Fentezi, Jangari, Sarguzasht
Chiqqan yili: 2017
Davomiyligi: 02:21:13-Перевод: Профессиональный (дублированный) O'zbek tilida-Rejissiyor: Patti Djenkins-Rollarda: Gal Gadot, Robin Rayt, Devid Tyulis, Konni Nilsen, Kris Payn, Yelena Anayya, Lyusi Devis, Yuen Bremner, Dautsen Kryoz, Denni Xyuston-Описание: Qahramon ayol nomini olishdan avval u, Diana - yengilmas jangchi va amazonkalar malikasi edi. Ularning tashqi dunyodan ximoyalangan vatani bo'lmish jannat oroli qirg'og'iga Amerikalik uchuvchi kelib qulaydi va tashqi dunyoda borayotgan jahon urushi haqida so'zlab beradi. Diana ushbu havfni bartaraf etish uchun o'z uyini tark etadi. Jangda insonlar bilan yelkama-yelka jang qila turib Diana o'z kuch - qudratini va asl maqsadini aniqlaydi.-Качество видео: BDRip
Формат видео: MKV
-Video: MPEG4 Video (H264) 1912x792 23.976fps 4 431 Kbps
Audio: Dolby AC3 48000Hz 6ch Rus
Audio: Dolby AC3 48000Hz 6ch Eng
Audio: MP3 48000Hz 2ch 128kbps Uzb
-

MediaInfo

General
Unique ID : 226442144721824025663698105729662606591 (0xAA5B2BB43F43BD76BF97869F41D05CFF)
Format : Matroska
Format version : Version 4 / Version 2
File size : 5.36 GiB
Duration : 2h 21mn
Overall bit rate : 5 436 Kbps
Movie name : Xusan_Gr@nd
Encoded date : UTC 2017-09-26 17:00:08
Writing application : mkvmerge v6.8.0 ('Theme for Great Cities') 64bit built on Mar 2 2014 21:34:26
Writing library : libebml v1.3.0 + libmatroska v1.4.1
Video
ID : 1
Format : AVC
Format/Info : Advanced Video Codec
Format profile : High@L4.0
Format settings, CABAC : Yes
Format settings, ReFrames : 5 frames
Codec ID : V_MPEG4/ISO/AVC
Duration : 2h 21mn
Bit rate : 4 431 Kbps
Width : 1 912 pixels
Height : 792 pixels
Display aspect ratio : 2.40:1
Frame rate : 23.976 fps
Color space : YUV
Chroma subsampling : 4:2:0
Bit depth : 8 bits
Scan type : Progressive
Bits/(Pixel*Frame) : 0.122
Stream size : 4.37 GiB (82%)
Language : English
Default : Yes
Forced : No
Color primaries : BT.709-5, BT.1361, IEC 61966-2-4, SMPTE RP177
Transfer characteristics : BT.709-5, BT.1361
Matrix coefficients : BT.709-5, BT.1361, IEC 61966-2-4 709, SMPTE RP177
Audio #1
ID : 2
Format : AC-3
Format/Info : Audio Coding 3
Mode extension : CM (complete main)
Format settings, Endianness : Big
Codec ID : A_AC3
Duration : 2h 21mn
Bit rate mode : Constant
Bit rate : 384 Kbps
Channel(s) : 6 channels
Channel positions : Front: L C R, Side: L R, LFE
Sampling rate : 48.0 KHz
Bit depth : 16 bits
Compression mode : Lossy
Stream size : 388 MiB (7%)
Title : iTunes
Language : Russian
Default : Yes
Forced : No
Audio #2
ID : 3
Format : AC-3
Format/Info : Audio Coding 3
Mode extension : CM (complete main)
Format settings, Endianness : Big
Codec ID : A_AC3
Duration : 2h 21mn
Bit rate mode : Constant
Bit rate : 384 Kbps
Channel(s) : 6 channels
Channel positions : Front: L C R, Side: L R, LFE
Sampling rate : 48.0 KHz
Bit depth : 16 bits
Compression mode : Lossy
Stream size : 388 MiB (7%)
Title : Original
Language : English
Default : No
Forced : No
Audio #3
ID : 4
Format : MPEG Audio
Format version : Version 1
Format profile : Layer 3
Mode : Joint stereo
Mode extension : MS Stereo
Codec ID : A_MPEG/L3
Codec ID/Hint : MP3
Duration : 2h 21mn
Bit rate mode : Constant
Bit rate : 128 Kbps
Channel(s) : 2 channels
Sampling rate : 44.1 KHz
Compression mode : Lossy
Stream size : 129 MiB (2%)
Title : Xusan_Gr@nd
Writing library : LAME3.98.2
Language : Uzbek
Default : No
Forced : No
--
Profil ShX

Gr@nd ®

Jins:
Yigit
Staj:
1 yil 1 oy
Xabarlar:
158

Qayerdan: Jizzax Forish

Taqiq:

Talablaga binoan

Mavzu yaratish 18-Okt-2017 22:34 (3 daqiqa o‘tgach)

Iqitibos

Profil ShX

UZTEXNO

Jins:
Yigit
Staj:
1 yil 2 oy
Xabarlar:
25
Taqiq:

504Hajmi: 5.36 GB
Oltin berila.

Mavzu yaratish 18-Okt-2017 22:42 (8 daqiqa o‘tgach)

Iqitibos

Profil ShX
Xabarlarni ko‘rsatish:    

Hozirgi vaqt: 15-Noy 10:54

Vaqtlar farqi: UTC + 5



Siz mavzu yaratishingiz mumkin emas
Siz xabarlarga javob qaytarishingiz mumkin emas
Siz o‘z xabarlaringizni tahrirlashingiz mumkin emas
Siz o‘z xabarlaringizni o‘chirishingiz mumkin emas
Siz so‘rovlarda ovoz berishingiz mumkin emas
Siz xabalarga fayllarni biriktirishingiz mumkin emas
Siz fayllarni ko‘chirishingiz mumkin emas