Tarqatmalar statistikasi
Ko‘chirmoqdaman: [ 2 ]
Ko‘chirib bo‘ldim: [ 1 ]
 
     
 
 

Abdulloh ®

Jins:
Ko‘rsatilmagan
Staj:
9 oy 23 kun
Xabarlar:
38
Taqiq:

Qahramonlar ishi | Дело храбрых / Only the Brave
Chiqqan yili: 2017
Davlat: AQSH
Janr: drama, biografiya
Davomiyligi: 02:14:03
-Tarjima: Professional (dublyaj qilingan) O'zbek tilida
Tarjima haqida qo'shimcha ma'lumot: telekanalida dublaj qilingan
-Rejissiyor: Josef Kosinski-Rollarda: Josh Brolin, Miles Teller, Jeff Bridges, Jeyms Badge Dale, Teylor Kitsch, Jennifer Connelly, Scott Haze, Aleks Rassell, Ben Hardy, Natalie Hall-Tavsif: Granit tog 'Hotshots deb nomlangan o't o'chiruvchilar jamoasi Arizona tarixidagi eng dahshatli yong'inlardan biri bilan to'qnashdi.-Videoning sifati: BDRip
Format video: MKV

-Video: XviD, 720x304, 23.976 fps, 1810 kbps
Audio: AAC 44100Hz stereo [uzb]

MediaInfo

General
Unique ID : 215071051334652215218213354236715573410 (0xA1CD2D83E20D4796B0D9FB444249A0A2)
Complete name : D:\Kino\Tarjima Kinolar HD\Qaxramonlar ishi.mkv
Format : Matroska
Format version : Version 4 / Version 2
File size : 1.80 GiB
Duration : 2 h 14 min
Overall bit rate : 1 921 kb/s
Encoded date : UTC 2018-02-16 17:27:15
Writing application : mkvmerge v7.5.0 ('Glass Culture') 64bit built on Jan 4 2015 16:48:44
Writing library : libebml v1.3.1 + libmatroska v1.4.2
Video
ID : 1
Format : MPEG-4 Visual
Format profile : Advanced Simple@L5
Format settings : BVOP1 / Custom Matrix
Format settings, BVOP : 1
Format settings, QPel : No
Format settings, GMC : No warppoints
Format settings, Matrix : Custom
Codec ID : V_MS/VFW/FOURCC / XVID
Codec ID/Hint : XviD
Duration : 2 h 14 min
Bit rate : 1 871 kb/s
Width : 720 pixels
Height : 304 pixels
Display aspect ratio : 2.35:1
Frame rate mode : Constant
Frame rate : 23.976 (24000/1001) FPS
Color space : YUV
Chroma subsampling : 4:2:0
Bit depth : 8 bits
Scan type : Progressive
Compression mode : Lossy
Bits/(Pixel*Frame) : 0.356
Stream size : 1.75 GiB (97%)
Writing library : XviD 73
Default : Yes
Forced : No
Audio
ID : 2
Format : AAC
Format/Info : Advanced Audio Codec
Format profile : LC
Codec ID : A_AAC-2
Duration : 2 h 14 min
Bit rate : 48.0 kb/s
Channel(s) : 2 channels
Channel positions : Front: L R
Sampling rate : 44.1 kHz
Frame rate : 43.066 FPS (1024 SPF)
Compression mode : Lossy
Stream size : 46.0 MiB (2%)
Title : O'zbek tilida @ A-Studio
Default : Yes
Forced : Yes

Lavhalar

Profil ShX

MRLG

Jins:
Yigit
Staj:
11 oy 6 kun
Xabarlar:
379
Taqiq:

Usha kuni shu filmni yoshlardan ham berdi, attang ko'chirolmay qoldim. MY5dan berilgan variantini ko'chirib olgandim premyera vaqtida.

Mavzu yaratish 17-Fev-2018 09:42 (9 soat o‘tgach)

Iqitibos

Profil ShX
Xabarlarni ko‘rsatish:    

Hozirgi vaqt: 23-Iyul 03:06

Vaqtlar farqi: UTC + 5



Siz mavzu yaratishingiz mumkin emas
Siz xabarlarga javob qaytarishingiz mumkin emas
Siz o‘z xabarlaringizni tahrirlashingiz mumkin emas
Siz o‘z xabarlaringizni o‘chirishingiz mumkin emas
Siz so‘rovlarda ovoz berishingiz mumkin emas
Siz xabalarga fayllarni biriktirishingiz mumkin emas
Siz fayllarni ko‘chirishingiz mumkin emas