˂
˃
Tarqatmalar statistikasi
Yoʻq
 
     
 
 

Gr@nd ®

Jins:
Yigit
Staj:
1 yil 1 oy
Xabarlar:
158

Qayerdan: Jizzax Forish

Taqiq:

Qahramonlar Ligasi | Лига справедливости / Justice League

-Davlat: AQSH
Janr: Fantastika, fentеzi, jangari, sarguzasht
Chiqqan yili: 2017
Davomiyligi: 02:00:01-Tarjima: Professional (dublyaj qilingan) O'zbek tilida-Rejissiyor: Zak Snaydеr-Rollarda: Gal Gadot, Robin Rayt, Djеyson Momoa, Konni Nilsеn, Emi Adams, Bеn Afflеk, Ezra Millеr, Embеr Xyord, Gеnri Kavill, Dayan Leyn-Tavsif: Supermanning fidokorlikdan ilhom olgan Bryus Ueyn, insoniyatga bo'lgan ishonchni qayta tiklaydi. U yanada kuchli raqibga qarshi kurashish uchun Diana shahzodasini yangi ittifoqdoshi qo'llab-quvvatlaydi. Batman va Wonder Woman tez uyg'ongan tahdidga qarshi kurashish uchun superhumanlar guruhini jalb qildi. Ammo super qahramonlar - Batman, Wonder Woman, Aquaman, Cyborg va Flashning noyob kompozitsiyasiga qaramasdan, sayyorani falokat hissi bilan qurshab olish uchun juda kech.-Videoning sifati: WEB-DL 1080p
Format MKV-Video: MPEG4 Video (H264) 1920x1080 23.976fps
Audio: Dolby AC3 48000Hz / 6ch / 448 kbps Rus
Audio: MP3 48000Hz / 2ch / 128kbps Uzb
-

MediaInfo

General
Unique ID : 187498001758626308112015981653555217897 (0x8D0ECD364FA12B76A30FD15CA55505E9)
Format : Matroska
Format version : Version 4 / Version 2
File size : 4.74 GiB
Duration : 2h 0mn
Overall bit rate : 5 651 Kbps
Movie name : Xusan_Gr@nd
Encoded date : UTC 2018-02-15 11:49:19
Writing application : mkvmerge v6.8.0 ('Theme for Great Cities') 64bit built on Mar 2 2014 21:34:26
Writing library : libebml v1.3.0 + libmatroska v1.4.1
Video
ID : 1
Format : AVC
Format/Info : Advanced Video Codec
Format profile : High@L4.0
Format settings, CABAC : Yes
Format settings, ReFrames : 4 frames
Codec ID : V_MPEG4/ISO/AVC
Duration : 2h 0mn
Bit rate : 5 027 Kbps
Width : 1 920 pixels
Height : 1 080 pixels
Display aspect ratio : 16:9
Frame rate : 23.976 fps
Color space : YUV
Chroma subsampling : 4:2:0
Bit depth : 8 bits
Scan type : Progressive
Bits/(Pixel*Frame) : 0.101
Stream size : 4.21 GiB (89%)
Language : English
Default : Yes
Forced : No
Color primaries : BT.709-5, BT.1361, IEC 61966-2-4, SMPTE RP177
Transfer characteristics : BT.709-5, BT.1361
Matrix coefficients : BT.709-5, BT.1361, IEC 61966-2-4 709, SMPTE RP177
Audio #1
ID : 2
Format : AC-3
Format/Info : Audio Coding 3
Mode extension : CM (complete main)
Format settings, Endianness : Big
Codec ID : A_AC3
Duration : 2h 0mn
Bit rate mode : Constant
Bit rate : 384 Kbps
Channel(s) : 6 channels
Channel positions : Front: L C R, Side: L R, LFE
Sampling rate : 48.0 KHz
Bit depth : 16 bits
Compression mode : Lossy
Stream size : 330 MiB (7%)
Title : iTunes
Language : Russian
Default : Yes
Forced : No
Audio #2
ID : 3
Format : MPEG Audio
Format version : Version 1
Format profile : Layer 3
Mode : Joint stereo
Mode extension : MS Stereo
Codec ID : A_MPEG/L3
Codec ID/Hint : MP3
Duration : 2h 0mn
Bit rate mode : Constant
Bit rate : 128 Kbps
Channel(s) : 2 channels
Sampling rate : 44.1 KHz
Compression mode : Lossy
Stream size : 110 MiB (2%)
Title : Xusan_Gr@nd
Writing library : LAME3.98.2
Language : Uzbek
Default : No
Forced : No
-
Profil ShX

Striker

Jins:
Yigit
Staj:
1 yil 3 oy
Xabarlar:
37
Taqiq:

GAP YO'Q. OMAD

Mavzu yaratish 16-Fev-2018 21:54 (22 soat o‘tgach)

Iqitibos

Profil ShX
Xabarlarni ko‘rsatish:    

Hozirgi vaqt: 17-Noy 17:36

Vaqtlar farqi: UTC + 5



Siz mavzu yaratishingiz mumkin emas
Siz xabarlarga javob qaytarishingiz mumkin emas
Siz o‘z xabarlaringizni tahrirlashingiz mumkin emas
Siz o‘z xabarlaringizni o‘chirishingiz mumkin emas
Siz so‘rovlarda ovoz berishingiz mumkin emas
Siz xabalarga fayllarni biriktirishingiz mumkin emas
Siz fayllarni ko‘chirishingiz mumkin emas