˂
˃
Tarqatmalar statistikasi
Ko‘chirib bo‘ldim: [ 16 ]
 
     
 
 

N.U.R.I.K.B.E.K ®

Jins:
Yigit
Staj:
1 yil
Xabarlar:
305

Qayerdan: Jizzax. Paxtakor

Taqiq:

Qasam | Клятва | The Vow
--Chiqqan yili: 2012
Davlat: AQSH, Germaniya, Fransiya, Braziliya, BuyukBritaniya, Avstraliya.
Janr: Drama, Melodrama.
Davomiyligi: 01:43:54--Tarjima #1: Professional (Kinoteatr) O'zbek Tilida
Tarjima #2: Professional (litsenziya) Rus Tilida--Rejissyor: Maykl Saksi--Rollarda: Reychal MakAdams, Chenning Tatum, Sem Nil, Scott Spidman, Djessika Leng, Kristina Peshich, Lukas Brayant, Brittni Irvin, Reychel Skarsten, Dillon Keysi.--Tavsif: Bir Lahza davomida Peyj va Leo avtohalokatga uchraydi. Rafiqasi komada bo'lsa-da, Leo to'shagidan bir lahzaga boʻlsa-da uzoqlashmaydi, lekin qizning hayotga qaytishi xotiraning yo'qolishi bilan yaqqol ko'rinib turadi - u sevgilisini tanimaydi va ularning romantikasini eslay olmaydi. Shunda Leo Peyjni qalbini qayta qozonishga qaror qiladi.--Videoning sifati: HDRip
Video format: MKV--Video: Xvid 720x304 23.976fps 1500 kbps
Audio: MP3 48000Hz stereo 192kbps O'zbek Tili
Audio 2: Dolby AC3 48000Hz 6ch 384kbps Rus Tili--

Media Info

General
Format : Matroska
Format version : Version 4 / Version 2
File size : 1.54 GiB
Duration : 1h 43mn
Overall bit rate : 2 119 Kbps
Video
ID : 1
Format : MPEG-4 Visual
Format profile : Advanced Simple@L5
Format settings, BVOP : 1
Format settings, QPel : No
Format settings, GMC : No warppoints
Format settings, Matrix : Custom
Codec ID : V_MS/VFW/FOURCC / XVID
Codec ID/Hint : XviD
Duration : 1h 43mn
Bit rate : 1 500 Kbps
Width : 720 pixels
Height : 304 pixels
Display aspect ratio : 2.35:1
Frame rate mode : Constant
Frame rate : 23.976 fps
Color space : YUV
Chroma subsampling : 4:2:0
Bit depth : 8 bits
Scan type : Progressive
Compression mode : Lossy
Bits/(Pixel*Frame) : 0.286
Stream size : 1.09 GiB (71%)
Writing library : XviD 1.2.1 (UTC 2008-12-04)
Default : Yes
Forced : No
Audio #1
ID : 2
Format : MPEG Audio
Format version : Version 1
Format profile : Layer 3
Mode : Joint stereo
Mode extension : MS Stereo
Codec ID : A_MPEG/L3
Codec ID/Hint : MP3
Duration : 1h 43mn
Bit rate mode : Constant
Bit rate : 192 Kbps
Channel(s) : 2 channels
Sampling rate : 48.0 KHz
Compression mode : Lossy
Stream size : 143 MiB (9%)
Title : O'zbek Tili
Default : Yes
Forced : No
Audio #2
ID : 3
Format : AC-3
Format/Info : Audio Coding 3
Mode extension : CM (complete main)
Format settings, Endianness : Big
Codec ID : A_AC3
Duration : 1h 43mn
Bit rate mode : Constant
Bit rate : 384 Kbps
Channel(s) : 6 channels
Channel positions : Front: L C R, Side: L R, LFE
Sampling rate : 48.0 KHz
Compression mode : Lossy
Stream size : 285 MiB (18%)
Title : Rus Tili
Default : No
Forced : No
LAVHALAR


So‘ngi marta tahrirlandi: N.U.R.I.K.B.E.K (2018-10-03 21:21), Jami tahrirlangan 6 marta
Profil ShX

AxeL

Jins:
Yigit
Staj:
8 oy 1 kun
Xabarlar:
601

Qayerdan: Gronland, Norway

Taqiq:

6277Video: Xvid 720x304 23.976fps 1500 kbps
bitrate qolib ketgan
6277
Tarjima:
Tarjima #1: Professional (Kinoteatr) O'zbek Tilida
Tarjima #2: Professional (litsenziya) Rus Tilida
bu esa ortiqcha, keyin sifati BDRipmas HDRip shularni tog'rilang, tavsifni ham google translate ga tarjima qildirvoring)

Mavzu yaratish 03-Okt-2018 15:45 (5 daqiqa o‘tgach)

Iqitibos

Profil ShX

N.U.R.I.K.B.E.K ®

Jins:
Yigit
Staj:
1 yil
Xabarlar:
305

Qayerdan: Jizzax. Paxtakor

Taqiq:

6279
6277Video: Xvid 720x304 23.976fps 1500 kbps
bitrate qolib ketgan
bunaqasi yo'q

MRLGdan ma`lumot


Media info da Bitrate degan qatorda ko'rsatilgan.

Mavzu yaratish 03-Okt-2018 16:23 (37 daqiqa o‘tgach)

Iqitibos

Profil ShX

N.U.R.I.K.B.E.K ®

Jins:
Yigit
Staj:
1 yil
Xabarlar:
305

Qayerdan: Jizzax. Paxtakor

Taqiq:

MRLG shartmi shunisi media info dan ko'raveradi kimga muhim busa

Mavzu yaratish 03-Okt-2018 16:37 (14 daqiqa o‘tgach)

Iqitibos

Profil ShX

AxeL

Jins:
Yigit
Staj:
8 oy 1 kun
Xabarlar:
601

Qayerdan: Gronland, Norway

Taqiq:

6282MRLG shartmi shunisi media info dan ko'raveradi kimga muhim busa
bu yerda gap muhim yoki muhimmasligidamas qoidaga asosan qilinmoqda

Mavzu yaratish 03-Okt-2018 16:42 (4 daqiqa o‘tgach)

Iqitibos

Profil ShX

N.U.R.I.K.B.E.K ®

Jins:
Yigit
Staj:
1 yil
Xabarlar:
305

Qayerdan: Jizzax. Paxtakor

Taqiq:

shu vaqtgacha shunde ko'rinishda bezap kevotkanim endi xato ac

Mavzu yaratish 03-Okt-2018 21:24 (4 soat o‘tgach)

Iqitibos

Profil ShX
Xabarlarni ko‘rsatish:    

Hozirgi vaqt: 19-Noy 03:20

Vaqtlar farqi: UTC + 5



Siz mavzu yaratishingiz mumkin emas
Siz xabarlarga javob qaytarishingiz mumkin emas
Siz o‘z xabarlaringizni tahrirlashingiz mumkin emas
Siz o‘z xabarlaringizni o‘chirishingiz mumkin emas
Siz so‘rovlarda ovoz berishingiz mumkin emas
Siz xabalarga fayllarni biriktirishingiz mumkin emas
Siz fayllarni ko‘chirishingiz mumkin emas