˂
˃
Tarqatmalar statistikasi
Ko‘chirib bo‘ldim: [ 1 ]
 
     
 
 

Abdulloh ®

Jins:
Ko‘rsatilmagan
Staj:
1 yil 1 oy
Xabarlar:
41
Taqiq:

Qashqir Ovchilari | Oхотники на гангстеров | Gangster squad
Chiqqan yili: 2013
Davlat: Amerika Qo'shma Shtatlari, Buyuk Britaniya
Janr: Triller, drama, detektiv ,jinoyatchilik
Davomiyligi: 01:52:55
-Tarjima: Professional (Ko'p ovozli kadr ortidan)
Tarjima haqida qo'shimcha ma'lumot: Kinoteatr kanalida tarjima qilingan. ( Kanalda uzilgan joylari rus tilida)
Subtitrlar: inglizcha
Original ovoz yo'lagi: Rus tilida
-Rejissiyor: Ruben Fleysher-Rollarda:
Josh Brolin, Ryan Gosling, Sean Penn, Emma Stone, Karter Bays, Entoni Macy, Giovanni Ribisi, Maykl Peña, Robert Patrik, Mireille Inos
-

Tavsif:
Los-Anjeles, 1949-yil. Asli Bruklinlik bo'lgan, yovuz Mikki Koen buzg'unchi bandaning boshlig'i. Shahar uning qo'l ostida bo'lib, narkotik moddalar va qurol-yaroq savdosi bilan shug'ullanib pul topadi. Agar ishlar ko'ngildagidek ketsa, Chikagodan g'arbda qush ham uning ruxsatisiz ucha olmaydi.- Sifat : HDRip
Format: MKV

Video: MPEG4 Video (H264) 1024x426 23.976fps
Audio №1:: Dolby AC3 48000Hz 6ch 384kbp [rus]
Audio №2:: Dolby AC3 48000Hz 6ch 384kbps [eng]
Audio №3:: MP3 44100Hz stereo 128kbps [uzb]

MediaInfo

General
Unique ID : 185033057110299046651832040189906000045 (0x8B34120ED87084ACB8F5F0469D3E18AD)
Complete name : D:\Internet\Kino UZ tracker\Ohotniki.na.gangsterov.2013 (1).mkv
Format : Matroska
Format version : Version 4 / Version 2
File size : 2.28 GiB
Duration : 1 h 52 min
Overall bit rate : 2 890 kb/s
Movie name : Ohotniki.na gangsterov.2013.D.x264.HDRip-MysTeRy
Encoded date : UTC 2018-02-03 13:57:43
Writing application : mkvmerge v7.5.0 ('Glass Culture') 64bit built on Jan 4 2015 16:48:44
Writing library : libebml v1.3.1 + libmatroska v1.4.2
Video
ID : 1
Format : AVC
Format/Info : Advanced Video Codec
Format profile : High@L4.1
Format settings : CABAC / 11 Ref Frames
Format settings, CABAC : Yes
Format settings, ReFrames : 11 frames
Codec ID : V_MPEG4/ISO/AVC
Duration : 1 h 52 min
Bit rate : 1 992 kb/s
Width : 1 024 pixels
Height : 426 pixels
Display aspect ratio : 2.40:1
Frame rate mode : Constant
Frame rate : 23.976 FPS
Color space : YUV
Chroma subsampling : 4:2:0
Bit depth : 8 bits
Scan type : Progressive
Bits/(Pixel*Frame) : 0.190
Stream size : 1.57 GiB (69%)
Title : ENCODER........: MysTeRy
Writing library : x264 core 130 r2273 b3065e6
Encoding settings : cabac=1 / ref=11 / deblock=1:-3:-3 / analyse=0x3:0x133 / me=umh / subme=10 / psy=1 / psy_rd=1.00:0.10 / mixed_ref=1 / me_range=32 / chroma_me=1 / trellis=2 / 8x8dct=1 / cqm=0 / deadzone=21,11 / fast_pskip=0 / chroma_qp_offset=-3 / threads=12 / lookahead_threads=2 / sliced_threads=0 / nr=0 / decimate=0 / interlaced=0 / bluray_compat=0 / constrained_intra=0 / bframes=8 / b_pyramid=2 / b_adapt=2 / b_bias=0 / direct=3 / weightb=1 / open_gop=0 / weightp=2 / keyint=250 / keyint_min=23 / scenecut=40 / intra_refresh=0 / rc_lookahead=60 / rc=2pass / mbtree=0 / bitrate=1992 / ratetol=1.0 / qcomp=0.70 / qpmin=0 / qpmax=69 / qpstep=4 / cplxblur=20.0 / qblur=0.5 / vbv_maxrate=50000 / vbv_bufsize=61400 / nal_hrd=none / ip_ratio=1.40 / pb_ratio=1.30 / aq=1:0.90
Language : English
Default : Yes
Forced : No
Color range : Limited
Color primaries : BT.709
Transfer characteristics : BT.709
Matrix coefficients : BT.709
Audio #1
ID : 2
Format : AC-3
Format/Info : Audio Coding 3
Codec ID : A_AC3
Duration : 1 h 52 min
Bit rate mode : Constant
Bit rate : 384 kb/s
Channel(s) : 6 channels
Channel positions : Front: L C R, Side: L R, LFE
Sampling rate : 48.0 kHz
Frame rate : 31.250 FPS (1536 SPF)
Bit depth : 16 bits
Compression mode : Lossy
Stream size : 310 MiB (13%)
Title : Dub
Language : Russian
Service kind : Complete Main
Default : No
Forced : No
Audio #2
ID : 3
Format : AC-3
Format/Info : Audio Coding 3
Codec ID : A_AC3
Duration : 1 h 52 min
Bit rate mode : Constant
Bit rate : 384 kb/s
Channel(s) : 6 channels
Channel positions : Front: L C R, Side: L R, LFE
Sampling rate : 48.0 kHz
Frame rate : 31.250 FPS (1536 SPF)
Bit depth : 16 bits
Compression mode : Lossy
Stream size : 310 MiB (13%)
Title : Original
Language : English
Service kind : Complete Main
Default : No
Forced : No
Audio #3
ID : 7
Format : MPEG Audio
Format version : Version 1
Format profile : Layer 3
Format settings : Joint stereo / MS Stereo
Codec ID : A_MPEG/L3
Codec ID/Hint : MP3
Duration : 1 h 52 min
Bit rate mode : Constant
Bit rate : 128 kb/s
Channel(s) : 2 channels
Sampling rate : 44.1 kHz
Frame rate : 38.281 FPS (1152 SPF)
Compression mode : Lossy
Stream size : 103 MiB (4%)
Title : O'zbek tilida @ A - Studio
Language : Uzbek
Default : Yes
Forced : Yes
Text #1
ID : 4
Format : UTF-8
Codec ID : S_TEXT/UTF8
Codec ID/Info : UTF-8 Plain Text
Duration : 1 h 30 min
Bit rate : 0 b/s
Count of elements : 14
Stream size : 420 Bytes (0%)
Title : Forced
Language : Russian
Default : No
Forced : No
Text #2
ID : 5
Format : UTF-8
Codec ID : S_TEXT/UTF8
Codec ID/Info : UTF-8 Plain Text
Duration : 1 h 43 min
Bit rate : 75 b/s
Count of elements : 1294
Stream size : 57.4 KiB (0%)
Language : Russian
Default : No
Forced : No
Text #3
ID : 6
Format : UTF-8
Codec ID : S_TEXT/UTF8
Codec ID/Info : UTF-8 Plain Text
Duration : 1 h 52 min
Bit rate : 57 b/s
Count of elements : 1436
Stream size : 47.5 KiB (0%)
Language : English
Default : No
Forced : No
Menu
00:00:00.000 : en:00:00:00.000
00:09:53.635 : en:00:09:53.635
00:20:51.167 : en:00:20:51.167
00:28:36.173 : en:00:28:36.173
00:39:22.860 : en:00:39:22.860
00:49:25.462 : en:00:49:25.462
00:59:59.262 : en:00:59:59.262
01:09:23.493 : en:01:09:23.493
01:20:05.259 : en:01:20:05.259
01:31:01.539 : en:01:31:01.539
01:38:50.341 : en:01:38:50.341
01:44:11.370 : en:01:44:11.370

Lavhalar



So‘ngi marta tahrirlandi: Abdulloh (2018-02-04 01:18), Jami tahrirlangan 2 marta
Profil ShX

MRLG

Jins:
Yigit
Staj:
1 yil 3 oy
Xabarlar:
523
Taqiq:

Poster juda kichik. Poster standarti haqida avvalgi relizlarizda aytib o'tganman.
Tavsifni o'ziz o'qib ko'rdizmi? Birorta ham gapi tushunarsiz. Translatedan foydalangan bo'lsez ham, sal tushunarliroq qilib o'ziz gapni qolipga solib o'zgartirib chiqing.

Mavzu yaratish 03-Fev-2018 22:18 (2 soat o‘tgach)

Iqitibos

Profil ShX

#Epic

Jins:
Yigit
Staj:
1 yil 2 oy
Xabarlar:
50

Qayerdan: Jizzax

Taqiq:

podforumda xatolik 2017 chiqmaganku bu
http://uztracker.me/viewforum.php?f=26
shu yerga joylash kere edi.

Mavzu yaratish 04-Fev-2018 20:09 (21 soat o‘tgach)

Iqitibos

Profil ShX
Xabarlarni ko‘rsatish:    

Hozirgi vaqt: 17-Noy 18:33

Vaqtlar farqi: UTC + 5



Siz mavzu yaratishingiz mumkin emas
Siz xabarlarga javob qaytarishingiz mumkin emas
Siz o‘z xabarlaringizni tahrirlashingiz mumkin emas
Siz o‘z xabarlaringizni o‘chirishingiz mumkin emas
Siz so‘rovlarda ovoz berishingiz mumkin emas
Siz xabalarga fayllarni biriktirishingiz mumkin emas
Siz fayllarni ko‘chirishingiz mumkin emas