˂
˃
Tarqatmalar statistikasi
Ko‘chiraman: [ 2 ]
Ko‘chirmoqdaman: [ 6 ]
Ko‘chirib bo‘ldim: [ 50 ]
 
     
 
 

MRLG ®

Jins:
Yigit
Staj:
1 yil 4 oy
Xabarlar:
526
Taqiq:

Qasoskorlar: Cheksizlik jangi / Мстители: Война бесконечности / Avengers: Infinity War -««An entire universe. Once and for all»»- -
Chiqqan yili: 2018
Davlat: AQSH
Janr: fantastika, fentezi, jangari, sarguzasht
Davomiyligi: 02:29:38
Tarjima #1: Ko'p kishilik tarjima kadr ortidan - [Yoshlar TV]
Tarjima #2: Ko'p kishilik tarjima kadr ortidan - [Sevimli TV]
Tarjima #3: To'liq dublyaj - Rus tilida [iTunes]
Subtitrlar: ruscha (to'liq + birik.), inglizcha (Full), inglizcha (SDH), inglizcha (SDH-Colored)- Rejissiyor: Entoni Russo / Anthony Russo, Jo Russo / Joe Russo- Rollarda:
-kichik Robert Dauni (Tony Stark / Iron Man), Kris Xemsvort (Thor), Mark Ruffalo (Bruce Banner / Hulk), Kris Evans (Steve Rogers / Captain America), Skarlett Yoxansson (Natasha Romanoff / Black Widow), Don Chidl (James Rhodes / War Machine), Benedikt Kamberbetch (Doctor Strange), Tom Xolland (Peter Parker / Spider-Man), Chedvik Bouzman (T'Challa / Black Panther), Zoi Saldana (Gamora), Karen Gillan (Nebula), Tom Xiddlston (Loki)- Tavsif:
Qasoskorlar va ularning ittifoqchilari, yakka qahramon eplay olmaydigan turli xil xavflardan dunyoni himoya qilishni davom ettirib turgan bir vaqtda, yangi tahdid kosmosdan keladi: Tanos. Galaktikalararo zolim olti abadiyat toshini yig'ishga intiladi, Bu qudratli artefakt yordamida real voqeylikni o'z xohishiga ko'ra o'zgartirish mumkin. Qasoskorlar ilgari nimalarga duch kelgan bo'lsa, Barchasi shu paytga olib keladi - Yerning taqdiri hali shu qadar noaniq bo'lmagan edi.- - Sifat: BDRip-AVC
Format: MKV
Video: AVC, 1080x452 (2.40:1), 1893 kbps, 23,976 fps, 0,162 bpp
Audio №1: Uzbek / MP3 / 2.0 / 48 kHz / 128 kbps / UZB - Yoshlar
Audio №2: Uzbek / MP3 / 2.0 / 48 kHz / 128 kbps / UZB - Sevimli
Audio №3: rus tilida / AC3 / 5.1 / 48 kHz / 384 kbps / RUS
Audio №4: Inglizcha / AC3 / 5.1 / 48 kHz / 448 kbps / ENG-

Media Info

General
Unique ID : 295650528734542087971104180667295626151 (0xDE6C387BA02908CB0C36DD22714A73A7)
Complete name : D:\Кино\Tarjima filmlar\HD Films Collection\Qasoskorlar.Cheksizlik.Jangi.2018.2xUZB.BDRip-AVC.-MRLG.mkv
Format : Matroska
Format version : Version 4 / Version 2
File size : 3.11 GiB
Duration : 2 h 29 min
Overall bit rate : 2 980 kb/s
Movie name : Avengers: Infinity War (2018) Release by MRLG
Encoded date : UTC 2018-08-05 13:57:52
Writing application : mkvmerge v25.0.0 ('Prog Noir') 64-bit
Writing library : libebml v1.3.6 + libmatroska v1.4.9
Cover : Yes
Attachments : cover.png
Video
ID : 1
Format : AVC
Format/Info : Advanced Video Codec
Format profile : High@L4.1
Format settings, CABAC : Yes
Format settings, ReFrames : 10 frames
Codec ID : V_MPEG4/ISO/AVC
Duration : 2 h 29 min
Bit rate : 1 893 kb/s
Width : 1 080 pixels
Height : 452 pixels
Display aspect ratio : 2.40:1
Frame rate mode : Constant
Frame rate : 23.976 (24000/1001) FPS
Color space : YUV
Chroma subsampling : 4:2:0
Bit depth : 8 bits
Scan type : Progressive
Bits/(Pixel*Frame) : 0.162
Stream size : 1.97 GiB (63%)
Title : potroks
Writing library : x264 core 155 r2901M 7d0ff22
Encoding settings : cabac=1 / ref=10 / deblock=1:-2:-2 / analyse=0x3:0x133 / me=umh / subme=11 / psy=1 / psy_rd=1.00:0.05 / mixed_ref=1 / me_range=48 / chroma_me=1 / trellis=2 / 8x8dct=1 / cqm=0 / deadzone=21,11 / fast_pskip=0 / chroma_qp_offset=-3 / threads=9 / lookahead_threads=2 / sliced_threads=0 / nr=0 / decimate=0 / interlaced=0 / bluray_compat=0 / constrained_intra=0 / bframes=12 / b_pyramid=2 / b_adapt=2 / b_bias=0 / direct=3 / weightb=1 / open_gop=0 / weightp=2 / keyint=240 / keyint_min=24 / scenecut=40 / intra_refresh=0 / rc_lookahead=100 / rc=2pass / mbtree=0 / bitrate=1893 / ratetol=1.0 / qcomp=0.70 / qpmin=0 / qpmax=69 / qpstep=4 / cplxblur=20.0 / qblur=0.5 / vbv_maxrate=50000 / vbv_bufsize=50000 / nal_hrd=none / filler=0 / ip_ratio=1.40 / pb_ratio=1.30 / aq=2:0.80
Language : English
Default : Yes
Forced : No
Audio #1
ID : 2
Format : MPEG Audio
Format version : Version 1
Format profile : Layer 3
Mode : Joint stereo
Mode extension : MS Stereo
Codec ID : A_MPEG/L3
Codec ID/Hint : MP3
Duration : 2 h 29 min
Bit rate mode : Constant
Bit rate : 128 kb/s
Channel(s) : 2 channels
Sampling rate : 48.0 kHz
Frame rate : 41.667 FPS (1152 spf)
Compression mode : Lossy
Stream size : 137 MiB (4%)
Title : Yoshlar.Dub | MRLG
Writing library : LAME3.100Є
Language : Uzbek
Default : Yes
Forced : No
Audio #2
ID : 3
Format : MPEG Audio
Format version : Version 1
Format profile : Layer 3
Mode : Joint stereo
Mode extension : MS Stereo
Codec ID : A_MPEG/L3
Codec ID/Hint : MP3
Duration : 2 h 29 min
Bit rate mode : Constant
Bit rate : 128 kb/s
Channel(s) : 2 channels
Sampling rate : 48.0 kHz
Frame rate : 41.667 FPS (1152 spf)
Compression mode : Lossy
Stream size : 137 MiB (4%)
Title : Sevimli TV.Dub | MRLG
Writing library : LAME3.100Є
Language : Uzbek
Default : No
Forced : No
Audio #3
ID : 4
Format : AC-3
Format/Info : Audio Coding 3
Mode extension : CM (complete main)
Format settings, Endianness : Big
Codec ID : A_AC3
Duration : 2 h 29 min
Bit rate mode : Constant
Bit rate : 384 kb/s
Channel(s) : 6 channels
Channel positions : Front: L C R, Side: L R, LFE
Sampling rate : 48.0 kHz
Frame rate : 31.250 FPS (1536 spf)
Compression mode : Lossy
Stream size : 411 MiB (13%)
Title : Dub | DD 5.1 @ 384 kbps - iTunes
Language : Russian
Default : No
Forced : No
Audio #4
ID : 5
Format : AC-3
Format/Info : Audio Coding 3
Mode extension : CM (complete main)
Format settings, Endianness : Big
Codec ID : A_AC3
Duration : 2 h 29 min
Bit rate mode : Constant
Bit rate : 448 kb/s
Channel(s) : 6 channels
Channel positions : Front: L C R, Side: L R, LFE
Sampling rate : 48.0 kHz
Frame rate : 31.250 FPS (1536 spf)
Compression mode : Lossy
Stream size : 479 MiB (15%)
Title : Original | DD 5.1 @ 448 kbps
Language : English
Default : No
Forced : No
Text #1
ID : 6
Format : UTF-8
Codec ID : S_TEXT/UTF8
Codec ID/Info : UTF-8 Plain Text
Duration : 2 h 12 min
Bit rate : 0 b/s
Count of elements : 14
Stream size : 373 Bytes (0%)
Title : Forced
Language : Russian
Default : Yes
Forced : No
Text #2
ID : 7
Format : UTF-8
Codec ID : S_TEXT/UTF8
Codec ID/Info : UTF-8 Plain Text
Duration : 2 h 28 min
Bit rate : 64 b/s
Count of elements : 1596
Stream size : 70.4 KiB (0%)
Title : Full
Language : Russian
Default : No
Forced : No
Text #3
ID : 8
Format : UTF-8
Codec ID : S_TEXT/UTF8
Codec ID/Info : UTF-8 Plain Text
Duration : 2 h 28 min
Bit rate : 76 b/s
Count of elements : 2085
Stream size : 83.2 KiB (0%)
Title : SDH
Language : Russian
Default : No
Forced : No
Text #4
ID : 9
Format : UTF-8
Codec ID : S_TEXT/UTF8
Codec ID/Info : UTF-8 Plain Text
Duration : 2 h 28 min
Bit rate : 42 b/s
Count of elements : 1723
Stream size : 46.5 KiB (0%)
Title : Full
Language : English
Default : No
Forced : No
Text #5
ID : 10
Format : UTF-8
Codec ID : S_TEXT/UTF8
Codec ID/Info : UTF-8 Plain Text
Duration : 2 h 28 min
Bit rate : 70 b/s
Count of elements : 2067
Stream size : 76.5 KiB (0%)
Title : SDH
Language : English
Default : No
Forced : No
Text #6
ID : 11
Format : UTF-8
Codec ID : S_TEXT/UTF8
Codec ID/Info : UTF-8 Plain Text
Duration : 2 h 28 min
Bit rate : 70 b/s
Count of elements : 2067
Stream size : 76.5 KiB (0%)
Title : SDH-Colored
Language : English
Default : No
Forced : No
Menu
00:00:00.000 : :Thanos Is Coming
00:11:28.000 : :Infinity Stones
00:18:14.000 : :Fight For The Time Stone
00:27:23.000 : :Who The Hell Are You Guys?
00:35:48.000 : :Wanda And Vision
00:42:23.000 : :Knowhere
00:54:12.000 : :Avengers Assemble
00:59:36.000 : :Take The Fight To Him
01:05:07.000 : :The Soul Stone
01:10:53.000 : :Nidavellir
01:17:07.000 : :Titan
01:24:14.000 : :Vormir
01:31:08.000 : :"Wakanda Forever"
01:42:00.000 : :Stormbreaker
01:45:57.000 : :Titan Confrontation
01:53:04.000 : :A Vision Situation
01:58:53.000 : :The Time Stone
02:03:58.000 : :The End Game
02:11:13.000 : :Aftermath
02:17:31.000 : :End Credits

Miniatyura

SKRINSHOTLAR
- © Template by MRLG
Profil ShX

UmarShoh

Jins:
Yigit
Staj:
9 oy 12 kun
Xabarlar:
371
Taqiq:

Voyay! gap yo'q eee! aa

Mavzu yaratish 05-Avg-2018 21:22 (6 daqiqa o‘tgach)

Iqitibos

Profil ShX

Adham Saidumarov

Jins:
Yigit
Staj:
10 oy 12 kun
Xabarlar:
90

Qayerdan: Farg'ona viloyati

Taqiq:

Treckerga bitta film bunchalik ko'p joylanmagan bo'lsa kerak 8 ta

Mavzu yaratish 05-Avg-2018 21:35 (13 daqiqa o‘tgach)

Iqitibos

Profil ShX

N.U.R.I.K.B.E.K

Jins:
Yigit
Staj:
1 yil 1 oy
Xabarlar:
344

Qayerdan: Jizzax. Paxtakor

Taqiq:

Adham Saidumarov, ferdinand boredi

Mavzu yaratish 05-Avg-2018 21:58 (22 daqiqa o‘tgach)

Iqitibos

Profil ShX

behaking

Jins:
Ko‘rsatilmagan
Staj:
4 oy 30 kun
Xabarlar:
1
Taqiq:

UZB Tarjimasini qachon quyasila ruscha ekanku bu!

MRLGdan izoh


Filmda bir emas 4 ta audio dorojka bor. Proigravatel dasturingizda almashtiring.

Mavzu yaratish 05-Avg-2018 23:04 (1 soat 6 daqiqa o‘tgach)

Iqitibos

Profil ShX

Asilbek 007

Jins:
Ko‘rsatilmagan
Staj:
8 oy 1 kun
Xabarlar:
13
Taqiq:

tezlik 0 ku, razdacha qiliylarrrr

Mavzu yaratish 06-Avg-2018 06:08 (7 soat o‘tgach)

Iqitibos

Profil ShX

Tulkin

Jins:
Yigit
Staj:
1 yil
Xabarlar:
46

Qayerdan: Kumkurgan

Taqiq:

oralarida qotib qogan joyi yo'qmi ovozni

Mavzu yaratish 06-Avg-2018 07:07 (59 daqiqa o‘tgach)

Iqitibos

Profil ShX

MRLG ®

Jins:
Yigit
Staj:
1 yil 4 oy
Xabarlar:
526
Taqiq:

Tulkin, Bunisidan habarim yo`q. Filmni yasab bo`lgach to`liq ko`rib chiqqanim yo`q.

Mavzu yaratish 06-Avg-2018 07:24 (16 daqiqa o‘tgach)

Iqitibos

Profil ShX

MRLG ®

Jins:
Yigit
Staj:
1 yil 4 oy
Xabarlar:
526
Taqiq:

Film haqida, filmga o'zbekcha ovozlar tushgan, tushmagani haqida ham yozib qoldiringlar) Bu komentlar faqat skorost so'rash uchun ochilmagan.)))

Mavzu yaratish 07-Avg-2018 12:06 (1 kun 4 soat o‘tgach)

Iqitibos

Profil ShX

Shokirjon

Jins:
Yigit
Staj:
4 oy 21 kun
Xabarlar:
7

Qayerdan: Mangit

Taqiq:

MRLG, Yoshlar Telekanali O'zbek Tiliga yaxshi tarjima qilgan, Dublyajda ovoz past eshitilgan.
Sevimli TV qilgan Dublyaj balandroq eshitiladi, balki unchalik ham bilinmas (Menga shunday).
RUS tilidek Dublyaj qilinsa zo'r bo'lardi, Menimcha ularga Dublyajning haqiqiy proyektlari ham berilsa kerak, ular qilgan Dublyaj haqiqiysidan faqat tilidagina farq bor.
Ya'ni ovoz film qahramonlariga mos tushushi( Misol uchun, Tanus jangchisi Devga devlarniki singari ovoz berilgan) va boshqa ko'pgina effektlar ajoyib ko'rinishda.

Mavzu yaratish 20-Avg-2018 17:45 (13 kun o‘tgach)

Iqitibos

Profil ShX
Forum Mavzu Muallif Hajm
Sifatsiz filmlar (CAMRip, TS, DVDScr) Qasoskorlar 3: Tugallanmagan Urush / Мстители 3: Война бесконечности / Avengers 3: Infinity War (Antoni Russo, Jou Russo) [2018, Fantastika, Jangari, Sarguzasht, TeleCine 1080p, Р] Soft-Release 4,53 GB
Sifatsiz filmlar (CAMRip, TS, DVDScr) Qasoskorlar 3: Tugallanmagan Urush / Мстители 3: Война бесконечности / Avengers 3: Infinity War (Antoni Russo, Jou Russo) [2018, Fantastika, Jangari, Sarguzasht, TeleSynch, P] Soft-Release 1,37 GB
Kinofilm Materiallari Qasoskorlar 3: Tugallanmagan Urush | Мстители 3 Война Бесконечности | Avengers: Infinity War (Entoni Russo, Jou Russo) [2018, Fantasika, Hayoliy, Kuchlanish, Sarguzasht WEBRip 1080p Dub] Treyler Soft-Release 52 MB
2012-2016 yil kinofilmlari Qasoskorlar II | Мстители: Эра Альтрона | Avengers: Age of Ultron (Joss Whedon) [2015, AQSH, Fantastika, jangari, triller, sarguzasht, TVRip] Dub MY5 Vampire_1987 706 MB
2012-2016 yil kinofilmlari Qasoskorlar | Мстители | The Avengers (Joss Whedon) [2012, AQSH, Fantastika, jangari, triller, sarguzasht, TVRip] Dub MY5 Vampire_1987 706 MB
HD, HD-AVC va yuqori sifatli Tarjima kinofilmlari Qasoskorlar: Abadiyat jangi (Entoni Russo, Jo Russo) [2018, fantastika, fentezi, jangari, sarguzasht, BDRip] azizbek 2,9 GB
HEVC Kinofilmlar Qasoskorlar: Cheksizlik jangi / Мстители: Война бесконечности / Avengers: Infinity War (Entoni Russo, DJo Russo.) [2018, Fantastika, Fentezi, Jangari, Sarguzasht., BDRip 720p, HEVC 10bit] N.U.R.I.K.B.E.K 1,77 GB
Xorij filmlari (iTunes) Qasoskorlar: Tugallanmagan jang / Мстители: Война бесконечности / Avengers: Infinity War (Entoni Russo, Jo Russo) [2018, Fantastika, fentezi, jangari, sarguzasht, BDRip] Unofficial 1,46 GB
Xabarlarni ko‘rsatish:    

Hozirgi vaqt: 17-Dek 09:30

Vaqtlar farqi: UTC + 5



Siz mavzu yaratishingiz mumkin emas
Siz xabarlarga javob qaytarishingiz mumkin emas
Siz o‘z xabarlaringizni tahrirlashingiz mumkin emas
Siz o‘z xabarlaringizni o‘chirishingiz mumkin emas
Siz so‘rovlarda ovoz berishingiz mumkin emas
Siz xabalarga fayllarni biriktirishingiz mumkin emas
Siz fayllarni ko‘chirishingiz mumkin emas