˂
˃
Tarqatmalar statistikasi
Ko‘chirmoqdaman: [ 2 ]
Ko‘chirib bo‘ldim: [ 10 ]
 
     
 
 

N.U.R.I.K.B.E.K ®

Jins:
Yigit
Staj:
1 yil 1 oy
Xabarlar:
349

Qayerdan: Jizzax. Paxtakor

Taqiq:

--Qasoskorlar: Cheksizlik jangi | Мстители: Война бесконечности | Avengers: Infinity War-- --Chiqqan yili: 2018
Davlat: AQSH.
Janr: Fantastika, Fentezi, Jangari, Sarguzasht.
Davomiyligi: 02:29:21
Tarjima: Professional (dublyaj qilingan)
Tarjima #1: Professional (MY5TV) O'zbek Tili
Tarjima #2: Professional (Ko'p ovozli) Rus Tilida--Rejissyor: Entoni Russo, DJo Russo.--Rollarda: Robert Dovney Jr., Josh Brolin, Mark Ruffalo, Tom Hiddleston, Kris Evans, Kris Hemsvort, Jeremy Renner, Kris Pratt, Elizabet Olsen, Sebastian Sten.--Tavsif: Qasoskorlar va ularning ittifoqchilari, yakka qahramon eplay olmaydigan turli xil xavflardan dunyoni himoya qilishni davom ettirib turgan bir vaqtda, yangi tahdid kosmosdan keladi: Tanos. Galaktikalararo zolim olti abadiyat toshini yig'ishga intiladi, Bu qudratli artefakt yordamida real voqeylikni o'z xohishiga ko'ra o'zgartirish mumkin. Qasoskorlar ilgari nimalarga duch kelgan bo'lsa, Barchasi shu paytga olib keladi - Yerning taqdiri hali shu qadar noaniq bo'lmagan edi.--Videoning sifati: BDRip 720p
Video format: MKV--Video: HVC1 1280x536 23.976fps 10bit
Audio: MP3 48000Hz stereo 192kbps O'zbek Tili
Audio 2: Dolby AC3 48000Hz 6ch 384kbps Rus Tili--

Media Info

General
Format : Matroska
Format version : Version 4 / Version 2
File size : 1.77 GiB
Duration : 2h 29mn
Overall bit rate : 1 698 Kbps

Video

ID : 1
Format : HEVC
Format/Info : High Efficiency Video Coding
Format profile : Main 10@L3.1@Main
Codec ID : V_MPEGH/ISO/HEVC
Duration : 2h 29mn
Bit rate : 1 088 Kbps
Width : 1 280 pixels
Height : 536 pixels
Display aspect ratio : 2.40:1
Frame rate mode : Constant
Frame rate : 23.976 fps
Color space : YUV
Chroma subsampling : 4:2:0
Bit depth : 10 bits
Bits/(Pixel*Frame) : 0.066
Stream size : 1.14 GiB (64%)
Default : Yes
Forced : No
Audio #1
ID : 2
Format : MPEG Audio
Format version : Version 1
Format profile : Layer 3
Mode : Joint stereo
Codec ID : A_MPEG/L3
Codec ID/Hint : MP3
Duration : 2h 29mn
Bit rate mode : Constant
Bit rate : 192 Kbps
Channel(s) : 2 channels
Sampling rate : 48.0 KHz
Compression mode : Lossy
Stream size : 206 MiB (11%)
Title : O'zbek Tili
Writing library : LAME3.99.5
Default : Yes
Forced : No
Audio #2
ID : 3
Format : AC-3
Format/Info : Audio Coding 3
Mode extension : CM (complete main)
Format settings, Endianness : Big
Codec ID : A_AC3
Duration : 2h 29mn
Bit rate mode : Constant
Bit rate : 384 Kbps
Channel(s) : 6 channels
Channel positions : Front: L C R, Side: L R, LFE
Sampling rate : 48.0 KHz
Compression mode : Lossy
Stream size : 411 MiB (23%)
Title : Rus Tili
Language : Russian
Default : No
Forced : Yes
LAVHALAR
Profil ShX
Forum Mavzu Muallif Hajm
Sifatsiz filmlar (CAMRip, TS, DVDScr) Qasoskorlar 3: Tugallanmagan Urush / Мстители 3: Война бесконечности / Avengers 3: Infinity War (Antoni Russo, Jou Russo) [2018, Fantastika, Jangari, Sarguzasht, TeleCine 1080p, Р] Soft-Release 4,53 GB
Sifatsiz filmlar (CAMRip, TS, DVDScr) Qasoskorlar 3: Tugallanmagan Urush / Мстители 3: Война бесконечности / Avengers 3: Infinity War (Antoni Russo, Jou Russo) [2018, Fantastika, Jangari, Sarguzasht, TeleSynch, P] Soft-Release 1,37 GB
Kinofilm Materiallari Qasoskorlar 3: Tugallanmagan Urush | Мстители 3 Война Бесконечности | Avengers: Infinity War (Entoni Russo, Jou Russo) [2018, Fantasika, Hayoliy, Kuchlanish, Sarguzasht WEBRip 1080p Dub] Treyler Soft-Release 52 MB
2012-2016 yil kinofilmlari Qasoskorlar II | Мстители: Эра Альтрона | Avengers: Age of Ultron (Joss Whedon) [2015, AQSH, Fantastika, jangari, triller, sarguzasht, TVRip] Dub MY5 Vampire_1987 706 MB
2012-2016 yil kinofilmlari Qasoskorlar | Мстители | The Avengers (Joss Whedon) [2012, AQSH, Fantastika, jangari, triller, sarguzasht, TVRip] Dub MY5 Vampire_1987 706 MB
HD, HD-AVC va yuqori sifatli Tarjima kinofilmlari Qasoskorlar: Abadiyat jangi (Entoni Russo, Jo Russo) [2018, fantastika, fentezi, jangari, sarguzasht, BDRip] azizbek 2,9 GB
HD, HD-AVC va yuqori sifatli Tarjima kinofilmlari Qasoskorlar: Cheksizlik jangi / Мстители: Война бесконечности / Avengers: Infinity War (Entoni Russo / Anthony Russo, Jo Russo / Joe Russo) [2018 y., fantastika, fentezi, jangari, BDRip-AVC] 2xUZB... MRLG 3,11 GB
Xorij filmlari (iTunes) Qasoskorlar: Tugallanmagan jang / Мстители: Война бесконечности / Avengers: Infinity War (Entoni Russo, Jo Russo) [2018, Fantastika, fentezi, jangari, sarguzasht, BDRip] Unofficial 1,46 GB
Xabarlarni ko‘rsatish:    

Hozirgi vaqt: 18-Dek 00:22

Vaqtlar farqi: UTC + 5



Siz mavzu yaratishingiz mumkin emas
Siz xabarlarga javob qaytarishingiz mumkin emas
Siz o‘z xabarlaringizni tahrirlashingiz mumkin emas
Siz o‘z xabarlaringizni o‘chirishingiz mumkin emas
Siz so‘rovlarda ovoz berishingiz mumkin emas
Siz xabalarga fayllarni biriktirishingiz mumkin emas
Siz fayllarni ko‘chirishingiz mumkin emas