Tarqatmalar statistikasi
Yoʻq
 
     
 
 

Vampire_1987 ®

Jins:
Ko‘rsatilmagan
Staj:
1 yil
Xabarlar:
114
Taqiq:

--Qasoskorlar | The Avengers-- Davlat: AQSH
Janr: Fantastika, jangari, triller, sarguzasht
Chiqqan yili: 2012
Davomiyligi: 02:10:08
Tarjima: Dublyaj (Professional)
Tarjima haqida qo'shimcha ma'lumot: MY5-TV --Rejissiyor: Joss Whedon--Rollarda: Robert Dauni ml., Kris Xemsvort, Kris Evans, Skarlett Yoxansson, Mark Ruffalo, Djeremi Renner, Semyuel L. Djekson, Aaron Teylor-Djonson, Elizabet Olsen, Djeyms Speyder--Описание: Локи, сводный брат Тора, возвращается, и в этот раз он не один. Земля на грани порабощения, и только лучшие из лучших могут спасти человечество.
Ник Фьюри, глава международной организации Щ. И. Т., собирает выдающихся поборников справедливости и добра, чтобы отразить атаку. Под предводительством Капитана Америки Железный Человек, Тор, Невероятный Халк, Соколиный глаз и Чёрная Вдова вступают в войну с захватчиком…-- --Sifat: TVRip
Format: AVI
Video: XviD 640x304 25fps 621kbps
Audio: MP3 48000Hz stereo 128kbps----

MediaInfo

General
Complete name : E:\TARJIMA TV\TV_ Go\Qasoskorlar 2012.avi
Format : AVI
Format/Info : Audio Video Interleave
File size : 706 MiB
Duration : 2 h 10 min
Overall bit rate : 759 kb/s
Writing application : VirtualDubMod 1.5.10.3 | www.virtualdub-fr.org || (build 2550/release)
Writing library : VirtualDubMod build 2550/release
Video
ID : 0
Format : MPEG-4 Visual
Format profile : Advanced Simple@L5
Format settings : BVOP1
Format settings, BVOP : 1
Format settings, QPel : No
Format settings, GMC : No warppoints
Format settings, Matrix : Default (H.263)
Codec ID : XVID
Codec ID/Hint : XviD
Duration : 2 h 10 min
Bit rate : 621 kb/s
Width : 640 pixels
Height : 304 pixels
Display aspect ratio : 2.105
Frame rate : 25.000 FPS
Color space : YUV
Chroma subsampling : 4:2:0
Bit depth : 8 bits
Scan type : Progressive
Compression mode : Lossy
Bits/(Pixel*Frame) : 0.128
Stream size : 578 MiB (82%)
Writing library : XviD 73
Audio
ID : 1
Format : MPEG Audio
Format version : Version 1
Format profile : Layer 3
Codec ID : 55
Codec ID/Hint : MP3
Duration : 2 h 10 min
Bit rate mode : Constant
Bit rate : 128 kb/s
Channel(s) : 2 channels
Sampling rate : 48.0 kHz
Compression mode : Lossy
Stream size : 119 MiB (17%)
Alignment : Aligned on interleaves
Interleave, duration : 40 ms (1.00 video frame)
Interleave, preload duration : 504 ms
Writing library : LAME3.99r
Encoding settings : -m s -V 4 -q 0 -lowpass 17 -b 128
Profil ShX

Топик был перенесен из форума Vaqtinchalik в форум 2012-2016 yil kinofilmlari
Vampire_1987

Mavzu yaratish 15-Okt-2017 12:52 (1 soat 7 daqiqa o‘tgach)

RustamoFF

Jins:
Yigit
Staj:
11 oy 7 kun
Xabarlar:
8

Qayerdan: Toshkent

Taqiq:

Mana okala adminla moderla mani eski qigan yasagan ishlarim eskilari xolasela buladanam zor qib qoldan kegancha qib yassab beroliman qolimdan keladi..

Mavzu yaratish 15-Okt-2017 20:15 (8 soat o‘tgach)

Iqitibos

Profil ShX
Forum Mavzu Muallif Hajm
Sifatsiz filmlar (CAMRip, TS, DVDScr) Qasoskorlar 3: Tugallanmagan Urush / Мстители 3: Война бесконечности / Avengers 3: Infinity War (Antoni Russo, Jou Russo) [2018, Fantastika, Jangari, Sarguzasht, TeleCine 1080p, Р] Soft-Release 4,53 GB
Sifatsiz filmlar (CAMRip, TS, DVDScr) Qasoskorlar 3: Tugallanmagan Urush / Мстители 3: Война бесконечности / Avengers 3: Infinity War (Antoni Russo, Jou Russo) [2018, Fantastika, Jangari, Sarguzasht, TeleSynch, P] Soft-Release 1,37 GB
Kinofilm Materiallari Qasoskorlar 3: Tugallanmagan Urush | Мстители 3 Война Бесконечности | Avengers: Infinity War (Entoni Russo, Jou Russo) [2018, Fantasika, Hayoliy, Kuchlanish, Sarguzasht WEBRip 1080p Dub] Treyler Soft-Release 52 MB
2012-2016 yil kinofilmlari Qasoskorlar II | Мстители: Эра Альтрона | Avengers: Age of Ultron (Joss Whedon) [2015, AQSH, Fantastika, jangari, triller, sarguzasht, TVRip] Dub MY5 Vampire_1987 706 MB
HD, HD-AVC va yuqori sifatli Tarjima kinofilmlari Qasoskorlar: Abadiyat jangi (Entoni Russo, Jo Russo) [2018, fantastika, fentezi, jangari, sarguzasht, BDRip] azizbek 2,9 GB
HD, HD-AVC va yuqori sifatli Tarjima kinofilmlari Qasoskorlar: Cheksizlik jangi / Мстители: Война бесконечности / Avengers: Infinity War (Entoni Russo / Anthony Russo, Jo Russo / Joe Russo) [2018 y., fantastika, fentezi, jangari, BDRip-AVC] 2xUZB... MRLG 3,11 GB
Xorij filmlari (iTunes) Qasoskorlar: Tugallanmagan jang / Мстители: Война бесконечности / Avengers: Infinity War (Entoni Russo, Jo Russo) [2018, Fantastika, fentezi, jangari, sarguzasht, BDRip] Unofficial 1,46 GB
Xabarlarni ko‘rsatish:    

Hozirgi vaqt: 21-Sen 05:15

Vaqtlar farqi: UTC + 5



Siz mavzu yaratishingiz mumkin emas
Siz xabarlarga javob qaytarishingiz mumkin emas
Siz o‘z xabarlaringizni tahrirlashingiz mumkin emas
Siz o‘z xabarlaringizni o‘chirishingiz mumkin emas
Siz so‘rovlarda ovoz berishingiz mumkin emas
Siz xabalarga fayllarni biriktirishingiz mumkin emas
Siz fayllarni ko‘chirishingiz mumkin emas