˂
˃
Tarqatmalar statistikasi
Ko‘chirmoqdaman: [ 2 ]
Ko‘chirib bo‘ldim: [ 12 ]
 
     
 
 

yunusovjamshid ®

Jins:
Yigit
Staj:
1 oy 8 kun
Xabarlar:
28

Qayerdan: Toshkent

Taqiq:

--Qaxr | Ярость | Fury -- Chiqqan yili: 2014
Davlat:
Janr: jangari, drama, urushga oid
Davomiyligi: 02:14:38
Tarjima: Professional (dublyaj qilingan)--Rejissyor: David Ayer--Rollarda: Bred Pitt, Logan Lerman, Shaya LaBaf, Maykl Penya, Djon Berntal, Djeyson Ayzeks, Djim Perrak, Bred Uilyam Xenke, Kevin Vens, Zaver Semyuel, Anamariya Marinka, Skott Istvud...--Tavsif: 1945 yil aprel, nemislar ustidan g'alaba allaqachon yaqinlashdi: ittifoqchilar ishonchli tarzda dushman hududiga kirishmoqda va ularga taqdim etilgan qarshilik kundan kunga kuchayib bormoqda. Biroq, bu g'alaba qozonish yo'lida, ittifoqdosh kuchlar ko'proq odamlarni yo'qotmaydi degani emas va ko'plab askarlar o'limni qo'llarida davom etayotganini bilishadi. G'alabalar nomi bilan har kuni shafqatsiz janglarni boshidan o'tkazadigan jangga chidashga intilgan pessimistlar orasida, "Fury" so'zi bo'yalgan barrelda tankning ekipaji tasvirlangan.
Afrikadagi va keyinchalik Evropada fashistlar qo'shinlari bilan kurashgan Vardaddy deb nomlanuvchi ekipaj komandiri bitta maqsadga erishdi - urushda omon qolish va o'z xalqining hayotini saqlab qolish-- Videoning sifati: BDRip
Video format:
Video: 1920x798, 23.976 fp/s, 3 730 kb/s
Audio 1: AAC, 44100Hz, stereo |
Audio 2: AC3, 48000Hz, 6 ch, 384 kbps |
Audio 3: AC3, 48000Hz, 6 ch, 384 kbps |

Media Info

General
Unique ID : 211539371723186934100560425606594812496 (0x9F250044476C63BEA15D099944EDDA50)
Complete name : D:\проче\кино\Ярость - 2014.Rus.Eng.Uzb.mkv
Format : Matroska
Format version : Version 4 / Version 2
File size : 4.38 GiB
Duration : 2 h 14 min
Overall bit rate : 4 652 kb/s
Encoded date : UTC 2017-11-15 15:37:49
Writing application : mkvmerge v8.3.0 ('Over the Horizon') 64bit
Writing library : libebml v1.3.1 + libmatroska v1.4.2
Video
ID : 2
Format : AVC
Format/Info : Advanced Video Codec
Format profile : High@L4
Format settings, CABAC : Yes
Format settings, ReFrames : 5 frames
Codec ID : V_MPEG4/ISO/AVC
Duration : 2 h 14 min
Bit rate : 3 730 kb/s
Width : 1 920 pixels
Height : 798 pixels
Display aspect ratio : 2.40:1
Frame rate mode : Constant
Frame rate : 23.976 (23976/1000) FPS
Color space : YUV
Chroma subsampling : 4:2:0
Bit depth : 8 bits
Scan type : Progressive
Bits/(Pixel*Frame) : 0.102
Stream size : 3.51 GiB (80%)
Language : English
Default : Yes
Forced : No
Color range : Limited
Color primaries : BT.709
Transfer characteristics : BT.709
Matrix coefficients : BT.709
Audio #1
ID : 1
Format : AAC
Format/Info : Advanced Audio Codec
Format profile : LC
Codec ID : A_AAC
Duration : 2 h 14 min
Bit rate : 152 kb/s
Channel(s) : 2 channels
Channel positions : Front: L R
Sampling rate : 44.1 kHz
Frame rate : 43.066 FPS (1024 spf)
Compression mode : Lossy
Stream size : 146 MiB (3%)
Language : Uzbek
Default : No
Forced : No
Audio #2
ID : 3
Format : AC-3
Format/Info : Audio Coding 3
Format settings, Endianness : Big
Codec ID : A_AC3
Duration : 2 h 14 min
Bit rate mode : Constant
Bit rate : 384 kb/s
Channel(s) : 6 channels
Channel positions : Front: L C R, Side: L R, LFE
Sampling rate : 48.0 kHz
Frame rate : 31.250 FPS (1536 spf)
Bit depth : 16 bits
Compression mode : Lossy
Stream size : 370 MiB (8%)
Language : Russian
Service kind : Complete Main
Default : Yes
Forced : No
Audio #3
ID : 4
Format : AC-3
Format/Info : Audio Coding 3
Format settings, Endianness : Big
Codec ID : A_AC3
Duration : 2 h 14 min
Bit rate mode : Constant
Bit rate : 384 kb/s
Channel(s) : 6 channels
Channel positions : Front: L C R, Side: L R, LFE
Sampling rate : 48.0 kHz
Frame rate : 31.250 FPS (1536 spf)
Bit depth : 16 bits
Compression mode : Lossy
Stream size : 370 MiB (8%)
Language : English
Service kind : Complete Main
Default : No
Forced : No
Menu
00:00:00.000 : en:1
00:07:57.000 : en:2
00:20:23.000 : en:3
00:26:37.000 : en:4
00:37:23.000 : en:5
00:43:21.000 : en:6
00:51:56.000 : en:7
01:01:16.000 : en:8
01:13:42.000 : en:9
01:18:25.000 : en:10
01:26:16.000 : en:11
01:29:45.000 : en:12
01:35:33.000 : en:13
01:48:05.000 : en:14
01:57:42.000 : en:15
02:00:34.000 : en:16
Profil ShX
Xabarlarni ko‘rsatish:    

Hozirgi vaqt: 11-Dek 03:43

Vaqtlar farqi: UTC + 5



Siz mavzu yaratishingiz mumkin emas
Siz xabarlarga javob qaytarishingiz mumkin emas
Siz o‘z xabarlaringizni tahrirlashingiz mumkin emas
Siz o‘z xabarlaringizni o‘chirishingiz mumkin emas
Siz so‘rovlarda ovoz berishingiz mumkin emas
Siz xabalarga fayllarni biriktirishingiz mumkin emas
Siz fayllarni ko‘chirishingiz mumkin emas