˂
˃
Tarqatmalar statistikasi
Ko‘chirmoqdaman: [ 8 ]
Ko‘chirib bo‘ldim: [ 51 ]
 
     
 
 

bekastar ®

Jins:
Yigit
Staj:
6 oy 15 kun
Xabarlar:
26

Qayerdan: Samarqand

Taqiq:

-Qaysarginam 2 - -Chiqqan yili: 2017
Davlat: O'zbekiston
Janri: Oilaviy, komediya
Davomiyligi: 01:36:57
Tarjima: Talab etilmaydi-Rejissiyor: Azamat Axrorov-Sеnariy: Ahror Nurmuhammad
Prodyusеr: Azamat Axrorov
Tasvirchi: Bahrom Berdiyev
Bastakor: Farrux Sobirov-Rollarda: Azamat Axrorov, Sogdiana Azimova, Saida Rametova, Muhammad Iso Abdulxayirov, Dilshod Mirzamurodov, Luiza Rasulova, Umida Muqimova-Film haqida: Rejissor Azamat Axrorovning “Qaysarginam 2” filmi eng ko‘p tomoshabin to‘plagan o‘zbek filmi bo‘ldi.-Sifat: WEBRip720
Format: MP4
Video kodek: MPEG4
Audio kodek: AAC
Video: H.264/AVC 1280x720 / 24.976fps / 1172 kb/s
Audio: AAC / 44100Hz stereo / 126 / Kbps

Media Info

Общее
Общее
Полное имя                               : C:\Users\BeK\Downloads\Video\Qaysarginam 2 (o'zbek film) _ Қайсаргинам 2 (ўзбек фильм).mp4
Формат                                   : MPEG-4
Профиль формата                          : Base Media / Version 2
Идентификатор кодека                     : mp42 (isom/mp42)
Размер файла                             : 904 Мбайт
Продолжительность                        : 1 ч. 36 м.
Режим общего битрейта                    : Переменный
Общий поток                              : 1304 Кбит/сек
Дата кодирования                         : UTC 2018-10-17 11:53:03
Дата пометки                             : UTC 2018-10-17 11:53:03
gsst                                     : 0
gstd                                     : 5817318
Видео
Идентификатор                            : 1
Формат                                   : AVC
Формат/Информация                        : Advanced Video Codec
Профиль формата                          : Main@L3.1
Параметр CABAC формата                   : Да
Параметр ReFrames формата                : 3 кадра
Идентификатор кодека                     : avc1
Идентификатор кодека/Информация          : Advanced Video Coding
Продолжительность                        : 1 ч. 36 м.
Битрейт                                  : 1172 Кбит/сек
Ширина                                   : 1280 пикселей
Высота                                   : 720 пикселей
Соотношение сторон                       : 16:9
Режим частоты кадров                     : Постоянный
Частота кадров                           : 25,000 кадров/сек
Цветовое пространство                    : YUV
Субдискретизация насыщенности            : 4:2:0
Битовая глубина                          : 8 бит
Тип развёртки                            : Прогрессивная
Бит/(Пиксели*Кадры)                      : 0.051
Размер потока                            : 813 Мбайт (90%)
Заголовок                                : ISO Media file produced by Google Inc. Created on: 10/17/2018.
Дата кодирования                         : UTC 2018-10-17 11:53:03
Дата пометки                             : UTC 2018-10-17 11:53:03
Цветовой диапазон                        : Limited
Основные цвета                           : BT.709
Характеристики трансфера                 : BT.709
Коэффициенты матрицы                     : BT.709
Аудио
Идентификатор                            : 2
Формат                                   : AAC
Формат/Информация                        : Advanced Audio Codec
Профиль формата                          : LC
Идентификатор кодека                     : 40
Продолжительность                        : 1 ч. 36 м.
Вид битрейта                             : Переменный
Битрейт                                  : 128 Кбит/сек
Каналы                                   : 2 канала
Расположение каналов                     : Front: L R
Частота                                  : 44,1 КГц
Частота кадров                           : 43,066 кадра/сек (1024 spf)
Метод сжатия                             : С потерями
Размер потока                            : 88,8 Мбайт (10%)
Заголовок                                : ISO Media file produced by Google Inc. Created on: 10/17/2018.
Дата кодирования                         : UTC 2018-10-17 11:53:03
Дата пометки                             : UTC 2018-10-17 11:53:03
-LAVHALAR--
Profil ShX

Clayf

Jins:
Ko‘rsatilmagan
Staj:
1 oy 25 kun
Xabarlar:
3
Taqiq:

Video: H.264/AVC
Oddiyrog'i yuqmi? vid kart bo'masa podderjka qimedi

Mavzu yaratish 19-Okt-2018 13:50 (1 kun 16 soat o‘tgach)

Iqitibos

Profil ShX

N.U.R.I.K.B.E.K

Jins:
Yigit
Staj:
1 yil 1 oy
Xabarlar:
339

Qayerdan: Jizzax. Paxtakor

Taqiq:

Clayf, nega endi media codec bormi

Mavzu yaratish 19-Okt-2018 13:56 (6 daqiqa o‘tgach)

Iqitibos

Profil ShX

Clayf

Jins:
Ko‘rsatilmagan
Staj:
1 oy 25 kun
Xabarlar:
3
Taqiq:

N.U.R.I.K.B.E.K, Bor. ko'rsatoradiyu qatib beradi ko'rgandek bo'mesiz

Mavzu yaratish 19-Okt-2018 16:25 (2 soat 29 daqiqa o‘tgach)

Iqitibos

Profil ShX

N.U.R.I.K.B.E.K

Jins:
Yigit
Staj:
1 yil 1 oy
Xabarlar:
339

Qayerdan: Jizzax. Paxtakor

Taqiq:

Clayf, pratsesr slabiyromi

Mavzu yaratish 19-Okt-2018 16:48 (23 daqiqa o‘tgach)

Iqitibos

Profil ShX

Clayf

Jins:
Ko‘rsatilmagan
Staj:
1 oy 25 kun
Xabarlar:
3
Taqiq:

N.U.R.I.K.B.E.K, ha

Mavzu yaratish 19-Okt-2018 17:12 (23 daqiqa o‘tgach)

Iqitibos

Profil ShX
Xabarlarni ko‘rsatish:    

Hozirgi vaqt: 11-Dek 20:15

Vaqtlar farqi: UTC + 5



Siz mavzu yaratishingiz mumkin emas
Siz xabarlarga javob qaytarishingiz mumkin emas
Siz o‘z xabarlaringizni tahrirlashingiz mumkin emas
Siz o‘z xabarlaringizni o‘chirishingiz mumkin emas
Siz so‘rovlarda ovoz berishingiz mumkin emas
Siz xabalarga fayllarni biriktirishingiz mumkin emas
Siz fayllarni ko‘chirishingiz mumkin emas