Tarqatmalar statistikasi
Ko‘chirib bo‘ldim: [ 1 ]
 
     
 
 

Abdulloh ®

Jins:
Ko‘rsatilmagan
Staj:
11 oy 19 kun
Xabarlar:
41
Taqiq:

Qirol Arturning Qilichi | Меч короля Артура
King Arthur: Legend of the Sword

--Chiqqan yili: 2017
Davlat: AQSH
Janr: Fantaziya, harakat, drama, sarguzasht
Davomiyligi: 02:06:13
-Tarjima: Professional (dublyaj qilingan) O'zbek tilida
Tarjima haqida qo'shimcha ma'lumot: telekanalida dublaj qilingan
-Rejissiyor: Gay Richi-Rollarda: Charlie Hannem, Astrid Berger-Frisbee, Jude Law, Jimon Hons, Erik Bana, Aidan Gillen, Freddie Fox, Kreyg MakGinli, Tom Vu, Kingsley Ben-Adir-Film haqida: Yosh Artur o'zining to'dasi bilan, Londinium tevaragida izg'ib yuradi. U, o'zining kelib chiqishi bilan umuman qiziqmaydi va qadrlamaydi. Taqdir uni, sehrli qilich "Eskalibur" bilan to'qnashturgunga qadar yashaydi. So'ngra Artur butkul o'zgarib - sevib qoladi, ota-onasini o'ldirgan, taxtni egallagan Vortigemni taxtdan ag'darish uchun atrofida odamlarni yig'adi va qarshilik harakatlariga qo'shiladi.-Videoning sifati: HEVC BDRip 1080p
Format video: MKV-Video: HEVC | BDRip 1080p 1920x804 23.976fps
Audio # 1: Dolby AC3 48000Hz 6ch 384kbps [rus]
Audio # 2: MP3 44100Hz stereo 256kbps [uzb]--

MediaInfo

General
Unique ID : 195711671135770980218224984004782971875 (0x933CB260DF27BEB48799BA07C6E3DBE3)
Complete name : D:\Kino\Tarjima Kinolar HD\Qirol Artur 2017. uz.ru.mkv
Format : Matroska
Format version : Version 4 / Version 2
File size : 5.50 GiB
Duration : 2 h 6 min
Overall bit rate : 6 236 kb/s
Movie name : 00000
Encoded date : UTC 2018-03-11 17:17:24
Writing application : mkvmerge v7.5.0 ('Glass Culture') 64bit built on Jan 4 2015 16:48:44
Writing library : libebml v1.3.1 + libmatroska v1.4.2
Cover : Yes
Attachments : cover.jpg
Video
ID : 1
Format : HEVC
Format/Info : High Efficiency Video Coding
Format profile : Main@L4@Main
Codec ID : V_MPEGH/ISO/HEVC
Duration : 2 h 6 min
Bit rate : 5 609 kb/s
Width : 1 920 pixels
Height : 804 pixels
Display aspect ratio : 2.40:1
Frame rate mode : Constant
Frame rate : 23.976 (24000/1001) FPS
Color space : YUV
Chroma subsampling : 4:2:0 (Type 1 / Type 0)
Bit depth : 8 bits
Bits/(Pixel*Frame) : 0.152
Stream size : 4.94 GiB (90%)
Default : Yes
Forced : No
Color range : Full
Color primaries : BT.709
Transfer characteristics : BT.709
Matrix coefficients : BT.709
Audio #1
ID : 2
Format : AC-3
Format/Info : Audio Coding 3
Codec ID : A_AC3
Duration : 2 h 6 min
Bit rate mode : Constant
Bit rate : 384 kb/s
Channel(s) : 6 channels
Channel positions : Front: L C R, Side: L R, LFE
Sampling rate : 48.0 kHz
Frame rate : 31.250 FPS (1536 SPF)
Bit depth : 16 bits
Compression mode : Lossy
Stream size : 347 MiB (6%)
Title : Dub "iTunes"
Language : Russian
Service kind : Complete Main
Default : No
Forced : No
Audio #2
ID : 3
Format : MPEG Audio
Format version : Version 1
Format profile : Layer 3
Format settings : Joint stereo
Codec ID : A_MPEG/L3
Codec ID/Hint : MP3
Duration : 1 h 59 min
Bit rate mode : Constant
Bit rate : 256 kb/s
Channel(s) : 2 channels
Sampling rate : 44.1 kHz
Frame rate : 38.281 FPS (1152 SPF)
Compression mode : Lossy
Stream size : 218 MiB (4%)
Title : O'zbek tilida
Language : Uzbek
Default : Yes
Forced : Yes

Lavhalar

Profil ShX
Xabarlarni ko‘rsatish:    

Hozirgi vaqt: 19-Sen 05:57

Vaqtlar farqi: UTC + 5



Siz mavzu yaratishingiz mumkin emas
Siz xabarlarga javob qaytarishingiz mumkin emas
Siz o‘z xabarlaringizni tahrirlashingiz mumkin emas
Siz o‘z xabarlaringizni o‘chirishingiz mumkin emas
Siz so‘rovlarda ovoz berishingiz mumkin emas
Siz xabalarga fayllarni biriktirishingiz mumkin emas
Siz fayllarni ko‘chirishingiz mumkin emas